Drumline (2002)

Posted By: Tavaz
720p (HD) / BDRip IMDb
Drumline (2002)

Drumline (2002)
BDRip | MKV | 1280x544 | English | H264 @ 6092 kbps | DTS @ 1509 kbps | 2 h 2 min | 6.45 GiB
Genre: Drama, Romance, Comedy, Music

A fish-out-of-water comedy about a talented street drummer from Harlem who enrolls in a Southern university, expecting to lead its marching band's drumline to victory. He initially flounders in his new world, before realizing that it takes more than talent to reach the top.

Drumline.2002.720p.BluRay.DTS.x264-FuzerHD.mkv (6.4 GB)



General
Unique ID : 211708709475077115169179294428534840510 (0x9F459D4331E543211A6B07E8DAEA9CBE)
Complete name : ./Drumline.2002.720p.BluRay.DTS.x264-FuzerHD.mkv
Format : Matroska
Format version : Version 2
File size : 6.45 GiB
Duration : 2 h 2 min
Overall bit rate : 7 541 kb/s
Encoded date : UTC 2016-04-10T06:37:54Z
Writing application : HandBrake 0.10.5 2016021100
Writing library : Lavf55.12.0

Video
ID : 1
Format : AVC
Format/Info : Advanced Video Codec
Format profile : Main@L5
Format settings : CABAC / 4 Ref Frames
Format settings, CABAC : Yes
Format settings, RefFrames : 4 frames
Codec ID : V_MPEG4/ISO/AVC
Duration : 2 h 2 min
Bit rate : 6 092 kb/s
Width : 1 280 pixels
Height : 544 pixels
Display aspect ratio : 2.35:1
Frame rate mode : Constant
Frame rate : 23.976 (24000/1001) FPS
Color space : YUV
Chroma subsampling : 4:2:0
Bit depth : 8 bits
Scan type : Progressive
Bits/(Pixel*Frame) : 0.365
Stream size : 5.03 GiB (78%)
Writing library : x264 core 142 r2479 dd79a61
Encoding settings : cabac=1 / ref=2 / deblock=1:0:0 / analyse=0x1:0x111 / me=hex / subme=4 / psy=1 / psy_rd=1.00:0.00 / mixed_ref=0 / me_range=16 / chroma_me=1 / trellis=1 / 8x8dct=0 / cqm=0 / deadzone=21,11 / fast_pskip=1 / chroma_qp_offset=0 / threads=12 / lookahead_threads=3 / sliced_threads=0 / nr=0 / decimate=1 / interlaced=0 / bluray_compat=0 / constrained_intra=0 / bframes=3 / b_pyramid=2 / b_adapt=1 / b_bias=0 / direct=1 / weightb=1 / open_gop=0 / weightp=1 / keyint=240 / keyint_min=24 / scenecut=40 / intra_refresh=0 / rc_lookahead=20 / rc=abr / mbtree=1 / bitrate=6092 / ratetol=1.0 / qcomp=0.60 / qpmin=0 / qpmax=69 / qpstep=4 / vbv_maxrate=135000 / vbv_bufsize=135000 / nal_hrd=none / filler=0 / ip_ratio=1.40 / aq=1:1.00
Default : Yes
Forced : No
Color range : Limited
Color primaries : BT.709
Transfer characteristics : BT.709
Matrix coefficients : BT.709

Audio
ID : 2
Format : DTS
Format/Info : Digital Theater Systems
Mode : 16
Format settings, Endianness : Big
Codec ID : A_DTS
Duration : 2 h 2 min
Bit rate mode : Constant
Bit rate : 1 509 kb/s
Channel(s) : 6 channels
Channel positions : Front: L C R, Side: L R, LFE
Sampling rate : 48.0 kHz
Frame rate : 93.750 FPS (512 SPF)
Bit depth : 24 bits
Compression mode : Lossy
Stream size : 1.29 GiB (20%)
Title : Surround
Language : English
Default : Yes
Forced : No

Menu
00:00:00.000 : :Chapter 1
00:03:44.516 : :Chapter 2
00:05:34.250 : :Chapter 3
00:09:29.777 : :Chapter 4
00:15:27.718 : :Chapter 5
00:19:56.111 : :Chapter 6
00:23:09.221 : :Chapter 7
00:25:20.102 : :Chapter 8
00:29:54.250 : :Chapter 9
00:37:27.370 : :Chapter 10
00:39:48.094 : :Chapter 11
00:40:59.498 : :Chapter 12
00:44:14.526 : :Chapter 13
00:45:48.495 : :Chapter 14
00:51:07.272 : :Chapter 15
00:54:09.621 : :Chapter 16
00:59:00.954 : :Chapter 17
01:04:15.726 : :Chapter 18
01:05:38.059 : :Chapter 19
01:08:23.057 : :Chapter 20
01:11:15.563 : :Chapter 21
01:16:51.106 : :Chapter 22
01:18:27.411 : :Chapter 23
01:19:48.075 : :Chapter 24
01:21:20.917 : :Chapter 25
01:25:07.268 : :Chapter 26
01:27:15.063 : :Chapter 27
01:29:20.438 : :Chapter 28
01:31:01.873 : :Chapter 29
01:34:44.595 : :Chapter 30
01:38:44.668 : :Chapter 31
01:41:11.398 : :Chapter 32
01:45:01.545 : :Chapter 33
01:47:14.761 : :Chapter 34
01:55:10.862 : :Chapter 35
01:56:13.299 : :Chapter 36





Drumline (2002)


Drumline (2002)


Drumline (2002)


Drumline (2002)


Drumline (2002)