Tags
Language
Tags

Earthquake (1974)

Posted By: Tavaz
1080p (FullHD) / BDRip IMDb
Earthquake (1974)

Earthquake (1974)
BDRip | MKV | 1920x1080 | English | H264 @ 5760 kbps | AC-3 @ 448 kbps | 2 h 1 min | 5.67 GiB
Subtitles: English
Genre: Action, Drama, Thriller

Various interconnected people struggle to survive when an earthquake of unimaginable magnitude hits Los Angeles, California.

393b1f1cb768eebf5e10b3bd338342f7.mkv (5.7 GB)



General
Unique ID : 281391508607075159295007625963000972851 (0xD3B208833874FD51C8A26A664C5A4633)
Complete name : ./393b1f1cb768eebf5e10b3bd338342f7.mkv
Format : Matroska
Format version : Version 4 / Version 2
File size : 5.67 GiB
Duration : 2 h 1 min
Overall bit rate : 6 657 kb/s
Movie name : Earthquake.1974.1080p.BluRay.x264-nikt0
Encoded date : UTC 2020-10-05 21:58:14 / UTC 2020-10-04T19:11:24Z
Writing application : mkvmerge v47.0.0 ('Black Flag') 64-bit
Writing library : libebml v1.3.10 + libmatroska v1.5.2 / Lavf57.7.2

Video
ID : 1
Format : AVC
Format/Info : Advanced Video Codec
Format profile : High@L4
Format settings : CABAC / 4 Ref Frames
Format settings, CABAC : Yes
Format settings, RefFrames : 4 frames
Codec ID : V_MPEG4/ISO/AVC
Duration : 2 h 1 min
Bit rate : 5 760 kb/s
Width : 1 920 pixels
Height : 1 080 pixels
Display aspect ratio : 16:9
Frame rate mode : Constant
Frame rate : 23.976 (24000/1001) FPS
Color space : YUV
Chroma subsampling : 4:2:0
Bit depth : 8 bits
Scan type : Progressive
Bits/(Pixel*Frame) : 0.116
Stream size : 4.80 GiB (85%)
Writing library : x264 core 155 r2901 7d0ff22
Encoding settings : cabac=1 / ref=4 / deblock=1:-3:-3 / analyse=0x3:0x133 / me=umh / subme=9 / psy=1 / psy_rd=1.10:0.25 / mixed_ref=1 / me_range=32 / chroma_me=1 / trellis=2 / 8x8dct=1 / cqm=0 / deadzone=6,6 / fast_pskip=1 / chroma_qp_offset=-4 / threads=34 / lookahead_threads=3 / sliced_threads=0 / nr=0 / decimate=1 / interlaced=0 / bluray_compat=0 / constrained_intra=0 / bframes=6 / b_pyramid=2 / b_adapt=2 / b_bias=0 / direct=3 / weightb=1 / open_gop=0 / weightp=2 / keyint=240 / keyint_min=24 / scenecut=40 / intra_refresh=0 / rc_lookahead=40 / rc=2pass / mbtree=1 / bitrate=5760 / ratetol=1.0 / qcomp=0.60 / qpmin=0 / qpmax=69 / qpstep=4 / cplxblur=20.0 / qblur=0.5 / vbv_maxrate=20000 / vbv_bufsize=25000 / nal_hrd=none / filler=0 / ip_ratio=1.40 / aq=1:1.00
Language : English
Default : Yes
Forced : No
Color range : Limited
Color primaries : BT.709
Transfer characteristics : BT.709
Matrix coefficients : BT.709
Statistics Tags Issue : mkvmerge v47.0.0 ('Black Flag') 64-bit 2020-10-05 21:58:14 / mkvmerge v47.0.0 ('Black Flag') 64-bit 2020-10-05 21:58:14 / UTC 2020-10-04T19:11:24Z
FromStats_BitRate : 5758987
FromStats_Duration : 02:01:57.727000000
FromStats_FrameCount : 175450
FromStats_StreamSize : 5267836907

Audio #1
ID : 2
Format : AC-3
Format/Info : Audio Coding 3
Format settings, Endianness : Big
Codec ID : A_AC3
Duration : 2 h 1 min
Bit rate mode : Constant
Bit rate : 448 kb/s
Channel(s) : 6 channels
Channel positions : Front: L C R, Side: L R, LFE
Sampling rate : 48.0 kHz
Frame rate : 31.250 FPS (1536 SPF)
Bit depth : 16 bits
Compression mode : Lossy
Stream size : 391 MiB (7%)
Title : Surround
Language : English
Service kind : Complete Main
Default : Yes
Forced : No
Statistics Tags Issue : mkvmerge v47.0.0 ('Black Flag') 64-bit 2020-10-05 21:58:14 / mkvmerge v47.0.0 ('Black Flag') 64-bit 2020-10-05 21:58:14 / UTC 2020-10-04T19:11:24Z
FromStats_BitRate : 448000
FromStats_Duration : 02:01:57.728000000
FromStats_FrameCount : 228679
FromStats_StreamSize : 409792768

Audio #2
ID : 3
Format : AC-3
Format/Info : Audio Coding 3
Format settings, Endianness : Big
Codec ID : A_AC3
Duration : 2 h 1 min
Bit rate mode : Constant
Bit rate : 448 kb/s
Channel(s) : 6 channels
Channel positions : Front: L C R, Side: L R, LFE
Sampling rate : 48.0 kHz
Frame rate : 31.250 FPS (1536 SPF)
Bit depth : 16 bits
Compression mode : Lossy
Stream size : 391 MiB (7%)
Title : Surround
Language : English
Service kind : Complete Main
Default : No
Forced : No
Statistics Tags Issue : mkvmerge v47.0.0 ('Black Flag') 64-bit 2020-10-05 21:58:14 / mkvmerge v47.0.0 ('Black Flag') 64-bit 2020-10-05 21:58:14 / UTC 2020-10-04T19:11:24Z
FromStats_BitRate : 448000
FromStats_Duration : 02:01:57.728000000
FromStats_FrameCount : 228679
FromStats_StreamSize : 409792768

Text
ID : 4
Format : UTF-8
Codec ID : S_TEXT/UTF8
Codec ID/Info : UTF-8 Plain Text
Language : English
Default : Yes
Forced : No
Statistics Tags Issue : mkvmerge v47.0.0 ('Black Flag') 64-bit 2020-10-05 21:58:14 / mkvmerge v47.0.0 ('Black Flag') 64-bit 2020-10-05 21:58:14 / UTC 2020-10-04T19:11:24Z
FromStats_BitRate : 58
FromStats_Duration : 01:57:20.491000000
FromStats_FrameCount : 1531
FromStats_StreamSize : 51218

Menu
00:00:00.000 : :Shaky Ground (Main Titles)
00:05:54.729 : :A Little Tremor
00:10:42.392 : :No Worries
00:16:38.247 : :Seismic Studies
00:21:32.792 : :Frightening Forecast
00:28:27.873 : :Urgent Matters
00:37:12.439 : :Called to Active Duty
00:43:14.467 : :Running Out of Time
00:51:44.685 : :Ground Zero
01:00:07.771 : :The Aftermath
01:08:44.454 : :Live Wires
01:13:56.349 : :On Your Own
01:18:55.648 : :Shot on Site
01:28:24.174 : :Troublemakers
01:33:41.533 : :Aftershock
01:43:05.513 : :Search & Rescue
01:52:26.198 : :Hell of a Town
02:00:12.664 : :End Titles





Earthquake (1974)


Earthquake (1974)


Earthquake (1974)


Earthquake (1974)


Earthquake (1974)