How to Eat Your Watermelon in White Company (and Enjoy It) (2005)

Posted By: vivid23
How to Eat Your Watermelon in White Company (and Enjoy It) (2005)

How to Eat Your Watermelon in White Company (and Enjoy It) (2005)
DVDrip | 706x480 | MKV/x264 @ 2348 Kbps | 84mn | Audio: English AC3 224 kbps, 2 channels | Subs: None | 1.55 GB
Genre: Documentary

Feature-length documentary on renegade filmmaker, novelist, musician and theater impresario, Melvin Van Peebles.

More info

Video
ID : 1
Format : AVC
Format/Info : Advanced Video Codec
Format profile : High@L3.0
Format settings, CABAC : Yes
Format settings, ReFrames : 5 frames
Codec ID : V_MPEG4/ISO/AVC
Duration : 1h 24mn
Bit rate : 2 348 Kbps
Width : 706 pixels
Height : 480 pixels
Display aspect ratio : 16:9
Original display aspect ratio : 16:9
Frame rate mode : Variable
Frame rate : 29.970 fps
Color space : YUV
Chroma subsampling : 4:2:0
Bit depth : 8 bits
Scan type : Progressive
Bits/(Pixel*Frame) : 0.231
Stream size : 1.39 GiB (89%)
Writing library : x264 core 112
Encoding settings : cabac=1 / ref=6 / deblock=1:-2:-2 / analyse=0x3:0x133 / me=umh / subme=9 / psy=1 / psy_rd=1.30:0.00 / mixed_ref=1 / me_range=24 / chroma_me=1 / trellis=2 / 8x8dct=1 / cqm=0 / deadzone=21,11 / fast_pskip=0 / chroma_qp_offset=-2 / threads=6 / sliced_threads=0 / nr=0 / decimate=1 / interlaced=0 / constrained_intra=0 / bframes=6 / b_pyramid=1 / b_adapt=2 / b_bias=0 / direct=3 / weightb=1 / open_gop=0 / weightp=2 / keyint=300 / keyint_min=29 / scenecut=40 / intra_refresh=0 / rc_lookahead=50 / rc=crf / mbtree=1 / crf=19.0 / qcomp=0.60 / qpmin=3 / qpmax=51 / qpstep=4 / ip_ratio=1.40 / aq=1:1.20
Language : English
Color primaries : BT.601-6 525, BT.1358 525, BT.1700 NTSC, SMPTE 170M
Transfer characteristics : BT.709-5, BT.1361
Matrix coefficients : BT.601-6 525, BT.1358 525, BT.1700 NTSC, SMPTE 170M

Audio
ID : 2
Format : AC-3
Format/Info : Audio Coding 3
Mode extension : CM (complete main)
Codec ID : A_AC3
Duration : 1h 24mn
Bit rate mode : Constant
Bit rate : 224 Kbps
Channel(s) : 2 channels
Channel positions : Front: L R
Sampling rate : 48.0 KHz
Bit depth : 16 bits
Compression mode : Lossy
Stream size : 136 MiB (9%)
Language : English

Menu
00:00:00.000 : Chapter 1
00:03:30.210 : Chapter 2
00:05:45.278 : Chapter 3
00:09:42.481 : Chapter 4
00:17:30.082 : Chapter 5
00:25:06.004 : Chapter 6
00:27:40.558 : Chapter 7
00:37:45.329 : Chapter 8
00:47:51.001 : Chapter 9
00:51:16.206 : Chapter 10
01:00:33.071 : Chapter 11
01:03:44.320 : Chapter 12
01:12:54.203 : Chapter 13
01:16:52.074 : Chapter 14
01:21:30.952 : Chapter 15
01:24:47.582 : Chapter 16


How to Eat Your Watermelon in White Company (and Enjoy It) (2005)

How to Eat Your Watermelon in White Company (and Enjoy It) (2005)


Feel free to contact me when links are dead