Eden (2012)

Posted By: NaVi7
Eden (2012)

Eden (2012)
DVDRip | AVI / XVID, 919 Kbps | 640x272 | 1h 34mn | 708 MB | English: MP3, 128 Kbps (2 ch) | Subtitles: none
DVD5 | PAL 16:9 (720x576) VBR | 1h 34mn | 4.36 GB
English: Dolby AC3, 6 ch / DTS, 6 ch | Subtitles: Finnish, Norwegian, Swedish, Danish
Genre: Drama

A young Korean-American girl, abducted and forced into prostitution by domestic human traffickers, joins forces with her captors in a desperate plea to survive.

imdb - 8 wins.

General
Complete name : eden-din.avi
Format : AVI
Format/Info : Audio Video Interleave
File size : 708 MiB
Duration : 1h 34mn
Overall bit rate : 1 053 Kbps

Video
ID : 0
Format : MPEG-4 Visual
Format profile : Advanced Simple@L5
Format settings, BVOP : 2
Format settings, QPel : No
Format settings, GMC : No warppoints
Format settings, Matrix : Default (H.263)
Codec ID : XVID
Codec ID/Hint : XviD
Duration : 1h 34mn
Bit rate : 919 Kbps
Width : 640 pixels
Height : 272 pixels
Display aspect ratio : 2.35:1
Frame rate : 25.000 fps
Color space : YUV
Chroma subsampling : 4:2:0
Bit depth : 8 bits
Scan type : Progressive
Compression mode : Lossy
Bits/(Pixel*Frame) : 0.211
Stream size : 618 MiB (87%)
Writing library : XviD 1.2.1 (UTC 2008-12-04)

Audio
ID : 1
Format : MPEG Audio
Format version : Version 1
Format profile : Layer 3
Mode : Joint stereo
Mode extension : MS Stereo
Codec ID : 55
Codec ID/Hint : MP3
Duration : 1h 34mn
Bit rate mode : Constant
Bit rate : 128 Kbps
Channel(s) : 2 channels
Sampling rate : 48.0 KHz
Compression mode : Lossy
Stream size : 86.1 MiB (12%)
Alignment : Aligned on interleaves
Interleave, duration : 160 ms (4.00 video frames)
Interleave, preload duration : 216 ms
Title : Eden 2012 DVD
Writing library : LAME3.99r
Encoding settings : -m j -V 4 -q 2 -lowpass 17 -b 128

Title: invan-eden-dvdr
Size: 4.36 Gb ( 4,569,816.00 KBytes ) - DVD-5
Enabled regions: 1, 2, 3, 4, 5, 6, 7, 8

VTS_01 :
Play Length: 01:34:00+{01:34:00}
Video: PAL 16:9 (720x576) VBR, Auto Letterboxed
Audio:
English (Dolby AC3, 6 ch)
English (DTS, 6 ch)
Subtitles:
Suomi
Norsk
Svenska
Dansk


screenshots - DVDRip:

Eden (2012)

Eden (2012)

Eden (2012)


screenshots - DVD5:

Eden (2012)

Eden (2012)

Eden (2012)


Welcome to My Blog!

Subscribe to My Newsletter!

No more mirrors!

If you want to download it, but found out that links are dead, just leave a comment or PM me!
Download Links:
Uploaded | Rapidgator - DVDRip
Uploaded | Rapidgator - DVD5
Links to RapidGator and Uploaded are inside the html file. Download the file and open it in your browser.