Egypt's Unexplained Files - Curse of the Crocodile Queen (2019)

Posted By: notbanned
1080p (FullHD) / HDTV
Egypt's Unexplained Files - Curse of the Crocodile Queen (2019)

Egypt's Unexplained Files - Curse of the Crocodile Queen (2019)
HDTV | 1920x1080 | .MKV/AVC @ 4920 Kbps | 42 min 23 s | 1.50 GiB
Audio: English AAC 127 kbps, 2 channels | Subs: English
Genre: Documentary

The Crocodile Queen was Egypt's first female pharaoh, but we don't who she was and why she took this sinister alter-ego. New discoveries might answer this ancient mystery, and experts use modern-day tech to reveal more of Egypt's darkest secrets.

General
Unique ID : 18129664014384437182449320849250115665 (0xDA3A572A6DF19FB1CE763F2C1F2E051)
Complete name : Egypts.Unexplained.Files.Curse.of.the.Crocodile.Queen.1080p.mkv
Format : Matroska
Format version : Version 4 / Version 2
File size : 1.50 GiB
Duration : 42 min 23 s
Overall bit rate : 5 064 kb/s

Video
ID : 2
Format : AVC
Format/Info : Advanced Video Codec
Format profile : High@L4
Format settings, CABAC : Yes
Format settings, ReFrames : 2 frames
Codec ID : V_MPEG4/ISO/AVC
Duration : 42 min 23 s
Bit rate : 4 920 kb/s
Width : 1 920 pixels
Height : 1 080 pixels
Display aspect ratio : 16:9
Frame rate mode : Constant
Frame rate : 29.970 FPS
Color space : YUV
Chroma subsampling : 4:2:0
Bit depth : 8 bits
Scan type : Progressive
Bits/(Pixel*Frame) : 0.079
Stream size : 1.46 GiB (97%)
Writing library : x264 core 148 r2579M 73ae2d1
Encoding settings : cabac=1 / ref=2 / deblock=1:0:0 / analyse=0x3:0x113 / me=hex / subme=2 / psy=1 / psy_rd=1.00:0.00 / mixed_ref=0 / me_range=16 / chroma_me=1 / trellis=0 / 8x8dct=1 / cqm=0 / deadzone=21,11 / fast_pskip=1 / chroma_qp_offset=0 / threads=1 / lookahead_threads=1 / sliced_threads=0 / nr=250 / decimate=1 / interlaced=0 / bluray_compat=0 / stitchable=1 / constrained_intra=0 / bframes=0 / weightp=1 / keyint=250 / keyint_min=25 / scenecut=40 / intra_refresh=0 / rc_lookahead=10 / rc=2pass / mbtree=1 / bitrate=4920 / ratetol=1.0 / qcomp=0.60 / qpmin=5 / qpmax=69 / qpstep=4 / cplxblur=20.0 / qblur=0.5 / ip_ratio=1.40 / aq=1:1.00
Language : English
Default : Yes
Forced : No

Audio
ID : 1
Format : AAC
Format/Info : Advanced Audio Codec
Format profile : HE-AAC / LC
Codec ID : A_AAC
Duration : 42 min 23 s
Bit rate : 127 kb/s
Channel(s) : 2 channels
Channel positions : Front: L R
Sampling rate : 48.0 kHz / 24.0 kHz
Frame rate : 23.438 FPS (1024 spf)
Compression mode : Lossy
Delay relative to video : -44 ms
Stream size : 38.4 MiB (3%)
Language : English
Default : Yes
Forced : No

Text
ID : 3
Format : UTF-8
Codec ID : S_TEXT/UTF8
Codec ID/Info : UTF-8 Plain Text
Duration : 42 min 20 s
Bit rate : 133 b/s
Count of elements : 808
Stream size : 41.4 KiB (0%)
Language : English
Default : No
Forced : No


Screenshots:

Egypt's Unexplained Files - Curse of the Crocodile Queen (2019)

Egypt's Unexplained Files - Curse of the Crocodile Queen (2019)

Egypt's Unexplained Files - Curse of the Crocodile Queen (2019)

Egypt's Unexplained Files - Curse of the Crocodile Queen (2019)