Eighth Grade (2018)

Posted By: Without
1080p (FullHD) / WEB-DL IMDb
Eighth Grade (2018)

Eighth Grade (2018)
HDRip | MKV | 720x384 | AVC@1654 kb/s | English AC3@384 kb/s | 6 channels | 1 h 33 min | 1.34 GB
WEB-DL 720p | MKV | 1280x686 | AVC@4067 kb/s | English AC3@384 kb/s | 6 channels | 1 h 33 min | 2.91 GB
WEB-DL 1080p | MKV | 1920x1030 | AVC@5210 kb/s | English AC3@384 kb/s | 6 channels | 1 h 33 min | 3.66 GB
Genre: Comedy, Drama

An introverted teenage girl tries to survive the last week of her disastrous eighth grade year before leaving to start high school.

IMDB - 6 wins & 3 nominations.


General
Eight.Grade.2018.HDRip.AC3.X264-CMRG.mkv
Format : Matroska
Format version : Version 4 / Version 2
File size : 1.35 GiB
Duration : 1 h 33 min
Overall bit rate : 2 059 kb/s
Encoded date : UTC 2018-09-25 04:36:53
Writing application : mkvmerge v15.0.0 ('Duel with the Devil') 64-bit
Writing library : libebml v1.3.5 + libmatroska v1.4.5
Writing frontend : StaxRip v1.7.0.0

Video
ID : 1
Format : AVC
Format/Info : Advanced Video Codec
Format profile : High@L4.1
Format settings, CABAC : Yes
Format settings, ReFrames : 6 frames
Codec ID : V_MPEG4/ISO/AVC
Duration : 1 h 33 min
Bit rate : 1 654 kb/s
Width : 720 pixels
Height : 384 pixels
Display aspect ratio : 1.85:1
Frame rate mode : Constant
Frame rate : 23.976 (24000/1001) FPS
Color space : YUV
Chroma subsampling : 4:2:0
Bit depth : 8 bits
Scan type : Progressive
Bits/(Pixel*Frame) : 0.250
Stream size : 1.10 GiB (81%)
Writing library : x264 core 152 r2851 ba24899
Encoding settings : cabac=1 / ref=6 / deblock=1:-1:-1 / analyse=0x3:0x113 / me=umh / subme=7 / psy=0 / mixed_ref=1 / me_range=16 / chroma_me=1 / trellis=1 / 8x8dct=1 / cqm=0 / deadzone=21,11 / fast_pskip=1 / chroma_qp_offset=0 / threads=90 / lookahead_threads=3 / sliced_threads=0 / nr=0 / decimate=1 / interlaced=0 / bluray_compat=0 / constrained_intra=0 / bframes=5 / b_pyramid=2 / b_adapt=2 / b_bias=0 / direct=1 / weightb=1 / open_gop=0 / weightp=2 / keyint=250 / keyint_min=23 / scenecut=40 / intra_refresh=0 / rc_lookahead=40 / rc=abr / mbtree=1 / bitrate=1654 / ratetol=1.0 / qcomp=0.60 / qpmin=0 / qpmax=69 / qpstep=4 / ip_ratio=1.40 / aq=1:1.10
Default : Yes
Forced : No
Color range : Limited
Color primaries : BT.709
Transfer characteristics : BT.709
Matrix coefficients : BT.709

Audio
ID : 2
Format : AC-3
Format/Info : Audio Coding 3
Mode extension : CM (complete main)
Format settings, Endianness : Big
Codec ID : A_AC3
Duration : 1 h 33 min
Bit rate mode : Constant
Bit rate : 384 kb/s
Channel(s) : 6 channels
Channel positions : Front: L C R, Side: L R, LFE
Sampling rate : 48.0 kHz
Frame rate : 31.250 FPS (1536 spf)
Bit depth : 16 bits
Compression mode : Lossy
Delay relative to video : 22 ms
Stream size : 258 MiB (19%)
Language : English
Default : No
Forced : No

Menu
00:00:00.000 : en:1
00:06:06.000 : en:2
00:12:36.000 : en:3
00:16:41.000 : en:4
00:23:09.000 : en:5
00:31:09.000 : en:6
00:36:56.000 : en:7
00:43:25.000 : en:8
00:50:00.000 : en:9
00:53:57.000 : en:10
01:01:44.000 : en:11
01:07:57.000 : en:12
01:13:23.000 : en:13
01:17:09.000 : en:14
01:24:33.000 : en:15
01:30:49.000 : en:16


General
eight.grade.2018.720p.WEB-DL.DD5.1.H264-CMRG.mkv
Format : Matroska
Format version : Version 4 / Version 2
File size : 2.92 GiB
Duration : 1 h 33 min
Overall bit rate : 4 453 kb/s
Encoded date : UTC 2018-09-25 04:08:02
Writing application : mkvmerge v11.0.0 ('Alive') 64bit
Writing library : libebml v1.3.4 + libmatroska v1.4.5

Video
ID : 1
Format : AVC
Format/Info : Advanced Video Codec
Format profile : High@L3.1
Format settings, CABAC : No
Format settings, ReFrames : 2 frames
Codec ID : V_MPEG4/ISO/AVC
Duration : 1 h 33 min
Bit rate : 4 067 kb/s
Width : 1 280 pixels
Height : 686 pixels
Display aspect ratio : 1.85:1
Frame rate mode : Constant
Frame rate : 23.976 (23976/1000) FPS
Color space : YUV
Chroma subsampling : 4:2:0
Bit depth : 8 bits
Scan type : Progressive
Bits/(Pixel*Frame) : 0.193
Stream size : 2.67 GiB (91%)
Language : English
Default : Yes
Forced : No
Color range : Limited
Color primaries : BT.709
Transfer characteristics : BT.709
Matrix coefficients : BT.709

Audio
ID : 2
Format : AC-3
Format/Info : Audio Coding 3
Mode extension : CM (complete main)
Format settings, Endianness : Big
Codec ID : A_AC3
Duration : 1 h 33 min
Bit rate mode : Constant
Bit rate : 384 kb/s
Channel(s) : 6 channels
Channel positions : Front: L C R, Side: L R, LFE
Sampling rate : 48.0 kHz
Frame rate : 31.250 FPS (1536 spf)
Bit depth : 16 bits
Compression mode : Lossy
Delay relative to video : -42 ms
Stream size : 258 MiB (9%)
Language : English
Default : Yes
Forced : No

Menu
00:00:00.000 : en:1
00:06:06.000 : en:2
00:12:36.000 : en:3
00:16:41.000 : en:4
00:23:09.000 : en:5
00:31:09.000 : en:6
00:36:56.000 : en:7
00:43:25.000 : en:8
00:50:00.000 : en:9
00:53:57.000 : en:10
01:01:44.000 : en:11
01:07:57.000 : en:12
01:13:23.000 : en:13
01:17:09.000 : en:14
01:24:33.000 : en:15
01:30:49.000 : en:16


General
eight.grade.2018.1080p.WEB-DL.DD5.1.H264-CMRG.mkv
Format : Matroska
Format version : Version 4 / Version 2
File size : 3.67 GiB
Duration : 1 h 33 min
Overall bit rate : 5 596 kb/s
Encoded date : UTC 2018-09-25 04:20:04
Writing application : mkvmerge v11.0.0 ('Alive') 64bit
Writing library : libebml v1.3.4 + libmatroska v1.4.5

Video
ID : 1
Format : AVC
Format/Info : Advanced Video Codec
Format profile : High@L4
Format settings, CABAC : Yes
Format settings, ReFrames : 4 frames
Codec ID : V_MPEG4/ISO/AVC
Duration : 1 h 33 min
Bit rate : 5 210 kb/s
Width : 1 920 pixels
Height : 1 030 pixels
Display aspect ratio : 1.85:1
Frame rate mode : Constant
Frame rate : 23.976 (23976/1000) FPS
Color space : YUV
Chroma subsampling : 4:2:0
Bit depth : 8 bits
Scan type : Progressive
Bits/(Pixel*Frame) : 0.110
Stream size : 3.42 GiB (93%)
Language : English
Default : Yes
Forced : No
Color range : Limited
Color primaries : BT.709
Transfer characteristics : BT.709
Matrix coefficients : BT.709

Audio
ID : 2
Format : AC-3
Format/Info : Audio Coding 3
Mode extension : CM (complete main)
Format settings, Endianness : Big
Codec ID : A_AC3
Duration : 1 h 33 min
Bit rate mode : Constant
Bit rate : 384 kb/s
Channel(s) : 6 channels
Channel positions : Front: L C R, Side: L R, LFE
Sampling rate : 48.0 kHz
Frame rate : 31.250 FPS (1536 spf)
Bit depth : 16 bits
Compression mode : Lossy
Delay relative to video : -42 ms
Stream size : 258 MiB (7%)
Language : English
Default : Yes
Forced : No

Menu
00:00:00.000 : en:1
00:06:06.000 : en:2
00:12:36.000 : en:3
00:16:41.000 : en:4
00:23:09.000 : en:5
00:31:09.000 : en:6
00:36:56.000 : en:7
00:43:25.000 : en:8
00:50:00.000 : en:9
00:53:57.000 : en:10
01:01:44.000 : en:11
01:07:57.000 : en:12
01:13:23.000 : en:13
01:17:09.000 : en:14
01:24:33.000 : en:15
01:30:49.000 : en:16



HDRip Screenshots

Eighth Grade (2018)

Eighth Grade (2018)

Eighth Grade (2018)


WEB-DL 720p Screenshots

Eighth Grade (2018)

Eighth Grade (2018)

Eighth Grade (2018)


WEB-DL 1080p Screenshots

Eighth Grade (2018)

Eighth Grade (2018)

Eighth Grade (2018)


Come Visit My Blog (•‿•)