Tags
Language
Tags

Enquete exclusive: Rock'n roll, drogues et nationalisme

Posted By: Tavaz
720p (HD) / HDTV
Enquete exclusive: Rock'n roll, drogues et nationalisme

Enquete exclusive: Rock'n roll, drogues et nationalisme
HDTV | MKV | 1280x720 | English | H264 @ 6763 kbps | MPEG Audio @ 256 kbps | 55 min 14 s | 2.71 GiB
Genre: Documentaries

Pour les amoureux de la fête, l'Europe de l'Est est la destination à la mode. Après des années de conflits ethniques et de guerres civiles, la Croatie, la Serbie et la Hongrie se sont émancipées et organisent, chaque été, les festivals les plus courus de la planète. Moins chers qu'Ibiza, plus extravagants et déjantés que partout ailleurs. Créé il y a 3 ans, sur l'île de Pag (Croatie), le festival techno Sonus rivalise avec les spring-breaks américains. Au programme : 10 000 jeunes survoltés, des boîtes de nuit gigantesques ouvertes 24 heures sur 24 et les meilleurs DJ du monde. En Hongrie se tient le plus grand festival d'Europe : le Sziget, un nouveau Woodstock. Des centaines de concerts pop et rock devant 500 000 fans déchaînés. Les amateurs de musique tzigane eux se retrouvent à Guca en Serbie, pour un festival unique en son genre. Tous ces festivals d'Europe de l'Est ont un point commun : la fête sans limite. Et pour les fêtards, tout est permis ! Sexe, alcool, drogue. Certains groupes d'ultra-nationalistes en profitent même pour venir afficher ouvertement leurs convictions au son des musiques techno, rock ou folkloriques.

enquete.exclusive.rockn.roll.drogues.et.nationalisme.doc.french.720p.hdtv.x264-sh0w.mkv (2.7 GB)
enquete.exclusive.rockn.roll.drogues.et.nationalisme.doc.french.720p.hdtv.x264-sh0w.sample.mkv (39.4 MB)



General
Unique ID : 244398486686506824284838682557295282599 (0xB7DD6FB71319B1A2AC391DF152D6C9A7)
Complete name : ./enquete.exclusive.rockn.roll.drogues.et.nationalisme.doc.french.720p.hdtv.x264-sh0w.mkv
Format : Matroska
Format version : Version 4 / Version 2
File size : 2.71 GiB
Duration : 55 min 14 s
Overall bit rate : 7 023 kb/s
Encoded date : UTC 2017-07-18 00:15:44
Writing application : mkvmerge v13.0.0 ('The Juggler') 64bit
Writing library : libebml v1.3.4 + libmatroska v1.4.5

Video
ID : 1
Format : AVC
Format/Info : Advanced Video Codec
Format profile : High@L4.1
Format settings : CABAC / 5 Ref Frames
Format settings, CABAC : Yes
Format settings, RefFrames : 5 frames
Codec ID : V_MPEG4/ISO/AVC
Duration : 55 min 14 s
Bit rate : 6 763 kb/s
Width : 1 280 pixels
Height : 720 pixels
Display aspect ratio : 16:9
Frame rate mode : Constant
Frame rate : 50.000 FPS
Color space : YUV
Chroma subsampling : 4:2:0
Bit depth : 8 bits
Scan type : Progressive
Bits/(Pixel*Frame) : 0.147
Stream size : 2.61 GiB (96%)
Writing library : x264 core 152 r2851 ba24899
Encoding settings : cabac=1 / ref=5 / deblock=1:0:0 / analyse=0x3:0x113 / me=hex / subme=8 / psy=1 / psy_rd=1.00:0.00 / mixed_ref=1 / me_range=16 / chroma_me=1 / trellis=2 / 8x8dct=1 / cqm=0 / deadzone=21,11 / fast_pskip=1 / chroma_qp_offset=-2 / threads=18 / lookahead_threads=3 / sliced_threads=0 / nr=0 / decimate=1 / interlaced=0 / bluray_compat=0 / constrained_intra=0 / bframes=3 / b_pyramid=2 / b_adapt=1 / b_bias=0 / direct=3 / weightb=1 / open_gop=0 / weightp=2 / keyint=250 / keyint_min=25 / scenecut=40 / intra_refresh=0 / rc_lookahead=50 / rc=crf / mbtree=1 / crf=20.0 / qcomp=0.60 / qpmin=0 / qpmax=69 / qpstep=4 / ip_ratio=1.40 / aq=1:1.00
Default : Yes
Forced : No

Audio
ID : 2
Format : MPEG Audio
Format version : Version 1
Format profile : Layer 2
Codec ID : A_MPEG/L2
Codec ID/Hint : MP2
Duration : 55 min 14 s
Bit rate mode : Constant
Bit rate : 256 kb/s
Channel(s) : 2 channels
Sampling rate : 48.0 kHz
Frame rate : 41.667 FPS (1152 SPF)
Compression mode : Lossy
Stream size : 101 MiB (4%)
Default : Yes
Forced : No





Enquete exclusive: Rock'n roll, drogues et nationalisme


Enquete exclusive: Rock'n roll, drogues et nationalisme


Enquete exclusive: Rock'n roll, drogues et nationalisme


Enquete exclusive: Rock'n roll, drogues et nationalisme


Enquete exclusive: Rock'n roll, drogues et nationalisme