Escape from Alcatraz (1979)

Posted By: Tavaz
1080p (FullHD) / BDRip IMDb
Escape from Alcatraz (1979)

Escape from Alcatraz (1979)
BDRip | MKV | 1920x1080 | English | H265 @ 3420 kbps | AC-3 @ 448 kbps | 1 h 51 min | 3.03 GiB
Subtitles: English
Genre: Crime, Drama

Escape from Alcatraz tells the story of the only three men ever to escape from the infamous maximum security prison at Alcatraz. In 29 years, the seemingly impenetrable federal penitentiary, which housed Al Capone and "Birdman" Robert Stroud, was only broken once - by three men never heard of again.

b81c5e3b5b3443b38365c7ca0014383c.mkv (3.0 GB)



General
Complete name : ./b81c5e3b5b3443b38365c7ca0014383c.mkv
Format : Matroska
Format version : Version 2
File size : 3.03 GiB
Duration : 1 h 51 min
Overall bit rate : 3 878 kb/s
Encoded date : UTC 2018-03-14 18:36:00
Writing application : DVDFab 10.0.8.7
Writing library : libebml v1.3.4 + libmatroska v1.4.5

Video
ID : 1
Format : HEVC
Format/Info : High Efficiency Video Coding
Format profile : Main 10@L4@Main
Codec ID : V_MPEGH/ISO/HEVC
Duration : 1 h 51 min
Bit rate : 3 420 kb/s
Width : 1 920 pixels
Height : 1 080 pixels
Display aspect ratio : 16:9
Frame rate mode : Constant
Frame rate : 23.976 (24000/1001) FPS
Color space : YUV
Chroma subsampling : 4:2:0
Bit depth : 10 bits
Bits/(Pixel*Frame) : 0.069
Stream size : 2.67 GiB (88%)
Default : Yes
Forced : No
Color range : Limited
Color primaries : BT.709
Transfer characteristics : BT.709
Matrix coefficients : BT.709

Audio
ID : 2
Format : AC-3
Format/Info : Audio Coding 3
Format settings, Endianness : Big
Codec ID : A_AC3
Duration : 1 h 51 min
Bit rate mode : Constant
Bit rate : 448 kb/s
Channel(s) : 6 channels
Channel positions : Front: L C R, Side: L R, LFE
Sampling rate : 48.0 kHz
Frame rate : 31.250 FPS (1536 SPF)
Bit depth : 16 bits
Compression mode : Lossy
Stream size : 359 MiB (12%)
Language : English
Service kind : Complete Main
Default : Yes
Forced : No

Text #1
ID : 3
Format : VobSub
Codec ID : S_VOBSUB
Codec ID/Info : Picture based subtitle format used on DVDs
Duration : 1 h 43 min
Bit rate : 4 158 b/s
Count of elements : 513
Stream size : 3.07 MiB (0%)
Language : English
Default : No
Forced : No

Text #2
ID : 4
Format : VobSub
Codec ID : S_VOBSUB
Codec ID/Info : Picture based subtitle format used on DVDs
Duration : 1 h 43 min
Bit rate : 4 529 b/s
Count of elements : 597
Stream size : 3.37 MiB (0%)
Language : English
Default : No
Forced : No

Menu
00:00:00.000 : en:(01)00:00:00:000
00:08:16.871 : en:(02)00:08:16:871
00:12:34.545 : en:(03)00:12:34:545
00:17:16.201 : en:(04)00:17:16:201
00:19:09.398 : en:(05)00:19:09:398
00:23:41.336 : en:(06)00:23:41:336
00:27:56.591 : en:(07)00:27:56:591
00:35:26.207 : en:(08)00:35:26:207
00:37:32.124 : en:(09)00:37:32:124
00:47:51.702 : en:(10)00:47:51:702
01:00:10.815 : en:(11)01:00:10:815
01:11:42.965 : en:(12)01:11:42:965
01:16:55.944 : en:(13)01:16:55:944
01:25:25.703 : en:(14)01:25:25:703
01:30:44.021 : en:(15)01:30:44:021
01:33:06.080 : en:(16)01:33:06:080
01:45:47.674 : en:(17)01:45:47:674
01:51:55.375 : en:(18)01:51:55:375





Escape from Alcatraz (1979)


Escape from Alcatraz (1979)


Escape from Alcatraz (1979)


Escape from Alcatraz (1979)


Escape from Alcatraz (1979)