BBC - Storyville: Expedition to the End of the World (2013)

Posted By: ParRus
BBC - Storyville: Expedition to the End of the World (2013)

BBC - Storyville: Expedition to the End of the World (2013)
HDTV-Rip | English | MP4 | 832 x 468 | AVC ~1589 Kbps | 25 fps
AAC | 128 kbps | 48.0 KHz | 2 channels | 00:58:49 | 724 MB
Genre: Documentary

Storyville: Documentary which follows the journey of a group of scientists and artists as they venture by ship into one of the last uncharted territories on Earth. Now global warming is melting the ice, an unexplored fjord system in north-east Greenland has opened for a few weeks each year. The explorers set sail on an Arctic journey where they encounter a polar bear, Stone Age playgrounds and an entirely new species. Awe, curiosity and humour bond the scientists and artists as they contemplate a landscape untouched by humanity. As the boat slips further away civilisation, the crew have a disturbing encounter which underlines the destructive impact of mankind. Epic, breath-taking and awe-inspiring, this documentary depicts both the wild beauty of the Earth and man's own transitory role in evolution.
General
Complete name : BBC.Storyville.2013.Expedition.to.the.End.of.the.World.mp4
Format : MPEG-4
Format profile : Base Media
Codec ID : isom
File size : 724 MiB
Duration : 58mn 49s
Overall bit rate mode : Variable
Overall bit rate : 1 721 Kbps
Encoded date : UTC 2013-02-13 22:20:34
Tagged date : UTC 2013-02-13 22:20:34
Writing application : Lavf51.12.1
Video #1
ID : 1
Format : AVC
Format/Info : Advanced Video Codec
Format profile : High@L3.0
Format settings, CABAC : No
Format settings, ReFrames : 1 frame
Format settings, GOP : M=1, N=12
Codec ID : avc1
Codec ID/Info : Advanced Video Coding
Duration : 58mn 49s
Bit rate : 1 589 Kbps
Width : 832 pixels
Height : 468 pixels
Display aspect ratio : 16:9
Frame rate mode : Constant
Frame rate : 25.000 fps
Color space : YUV
Chroma subsampling : 4:2:0
Bit depth : 8 bits
Scan type : Progressive
Bits/(Pixel*Frame) : 0.163
Stream size : 669 MiB (92%)
Encoded date : UTC 2013-02-13 22:20:34
Tagged date : UTC 2013-02-13 22:20:34
Audio #2
ID : 2
Format : AAC
Format/Info : Advanced Audio Codec
Format profile : LC
Codec ID : 40
Duration : 58mn 48s
Bit rate mode : Variable
Bit rate : 128 Kbps
Channel(s) : 2 channels
Channel positions : Front: L R
Sampling rate : 48.0 KHz
Compression mode : Lossy
Stream size : 53.8 MiB (7%)
Language : English
Encoded date : UTC 2013-02-13 22:20:34
Tagged date : UTC 2013-02-13 22:20:34

ScreenShots

BBC - Storyville: Expedition to the End of the World (2013)

BBC - Storyville: Expedition to the End of the World (2013)

BBC - Storyville: Expedition to the End of the World (2013)

BBC - Storyville: Expedition to the End of the World (2013)

For more, Visit my AH-blog

no mirrors please, Follow The Rules