Subcategories

Travel Channel Expedition Unknown - Hunt for Extraterrestrials Part 2 (2017)

Posted By: notbanned
Travel Channel Expedition Unknown - Hunt for Extraterrestrials Part 2 (2017)

Travel Channel Expedition Unknown - Hunt for Extraterrestrials Part 2 (2017)
HDTV | 1280x720 | .MKV/AVC @ 3132 Kbps | 42 min 1 s | 1.03 GiB
Audio: English AC3 384 kbps, 6 channels | Subs: English
Genre: Documentary | Adventure | Mystery

Part 2 of a special 4 part mini season. Josh's journey continues on remote Easter Island, where ancient alien theorists believe extraterrestrials visited a millennia ago. Then, he goes to the site of a recent meteorite strike in Zimbabwe that could prove life on Earth began in outer space.
More info


General
Unique ID : 203346489772429223344115536533232217412 (0x98FB1BFFED21FB6C84351C2DEEA2ED44)
Complete name : Expedition.Unknown.Hunt.for.Extraterrestrials.Part.2.720p.mkv
Format : Matroska
Format version : Version 4 / Version 2
File size : 1.03 GiB
Duration : 42 min 1 s
Overall bit rate : 3 519 kb/s

Video
ID : 1
Format : AVC
Format/Info : Advanced Video Codec
Format profile : High@L4.1
Format settings, CABAC : Yes
Format settings, ReFrames : 5 frames
Codec ID : V_MPEG4/ISO/AVC
Duration : 42 min 1 s
Bit rate : 3 132 kb/s
Width : 1 280 pixels
Height : 720 pixels
Display aspect ratio : 16:9
Frame rate mode : Constant
Frame rate : 29.970 (30000/1001) FPS
Color space : YUV
Chroma subsampling : 4:2:0
Bit depth : 8 bits
Scan type : Progressive
Bits/(Pixel*Frame) : 0.113
Stream size : 942 MiB (89%)
Writing library : x264 core 152 r2851 ba24899
Encoding settings : cabac=1 / ref=5 / deblock=1:0:0 / analyse=0x3:0x113 / me=hex / subme=8 / psy=1 / psy_rd=1.00:0.00 / mixed_ref=1 / me_range=16 / chroma_me=1 / trellis=2 / 8x8dct=1 / cqm=0 / deadzone=21,11 / fast_pskip=1 / chroma_qp_offset=-2 / threads=12 / lookahead_threads=2 / sliced_threads=0 / nr=0 / decimate=1 / interlaced=0 / bluray_compat=0 / constrained_intra=0 / bframes=3 / b_pyramid=2 / b_adapt=1 / b_bias=0 / direct=3 / weightb=1 / open_gop=0 / weightp=2 / keyint=250 / keyint_min=25 / scenecut=40 / intra_refresh=0 / rc_lookahead=50 / rc=crf / mbtree=1 / crf=20.0 / qcomp=0.60 / qpmin=0 / qpmax=69 / qpstep=4 / ip_ratio=1.40 / aq=1:1.00
Default : Yes
Forced : No
Color range : Limited
Matrix coefficients : BT.709

Audio
ID : 2
Format : AC-3
Format/Info : Audio Coding 3
Format settings, Endianness : Big
Codec ID : A_AC3
Duration : 42 min 1 s
Bit rate mode : Constant
Bit rate : 384 kb/s
Channel(s) : 6 channels
Channel positions : Front: L C R, Side: L R, LFE
Sampling rate : 48.0 kHz
Frame rate : 31.250 FPS (1536 spf)
Bit depth : 16 bits
Compression mode : Lossy
Stream size : 115 MiB (11%)
Service kind : Complete Main
Default : Yes
Forced : No

Text
ID : 3
Format : UTF-8
Codec ID : S_TEXT/UTF8
Codec ID/Info : UTF-8 Plain Text
Duration : 41 min 59 s
Bit rate : 97 b/s
Count of elements : 945
Stream size : 30.0 KiB (0%)
Language : English
Default : No
Forced : No

Menu
00:00:00.000 : en:Chapter 01
00:11:36.028 : en:Chapter 02
00:17:28.080 : en:Chapter 03
00:22:43.094 : en:Chapter 04
00:29:47.050 : en:Chapter 05
00:37:30.046 : en:Chapter 06


Screenshots:

Travel Channel Expedition Unknown - Hunt for Extraterrestrials Part 2 (2017)

Travel Channel Expedition Unknown - Hunt for Extraterrestrials Part 2 (2017)

Travel Channel Expedition Unknown - Hunt for Extraterrestrials Part 2 (2017)

Travel Channel Expedition Unknown - Hunt for Extraterrestrials Part 2 (2017)