Subcategories

National Geographic - Explorer: The New Face of Crime (2017)

Posted By: notbanned
National Geographic - Explorer: The New Face of Crime (2017)

National Geographic - Explorer: The New Face of Crime (2017)
HDTV | 1280x720 | .MP4/AVC @ 2368 Kbps | 46min 59s | 851 MiB
Audio: English AAC 160 kbps, 2 channels | Subs: English
Genre: Documentary

Join host Ali Wentworth as Explorer reveals a breakthrough in crime solving. Witness how new DNA analysis is beginning to allow investigators to create modern mugshots and reopen cold cases. Also a study of why some Afghan parents are dressing their girls as boys; and a profile of snowboarder Shaun White. A jet pack is taken for a flight, and physicist Michio Kaku talks about the limitations of jet packs.


General
Complete name : Explorer.The.New.Face.of.Crime.720p.mp4
Format : MPEG-4
Format profile : Base Media
Codec ID : isom (isom)
File size : 851 MiB
Duration : 46 min 59 s
Overall bit rate mode : Variable
Overall bit rate : 2 532 kb/s

Video
ID : 1
Format : AVC
Format/Info : Advanced Video Codec
Format profile : High@L4.1
Format settings, CABAC : Yes
Format settings, ReFrames : 4 frames
Codec ID : avc1
Codec ID/Info : Advanced Video Coding
Duration : 46 min 59 s
Bit rate : 2 368 kb/s
Maximum bit rate : 7 208 kb/s
Width : 1 280 pixels
Height : 720 pixels
Display aspect ratio : 16:9
Frame rate mode : Constant
Frame rate : 25.000 FPS
Color space : YUV
Chroma subsampling : 4:2:0
Bit depth : 8 bits
Scan type : Progressive
Bits/(Pixel*Frame) : 0.103
Stream size : 796 MiB (94%)
Writing library : x264 core 130 r2273 b3065e6
Encoding settings : cabac=1 / ref=1 / deblock=1:0:0 / analyse=0x3:0x3 / me=dia / subme=1 / psy=1 / psy_rd=1.00:0.00 / mixed_ref=0 / me_range=16 / chroma_me=1 / trellis=0 / 8x8dct=1 / cqm=0 / deadzone=21,11 / fast_pskip=1 / chroma_qp_offset=0 / threads=6 / lookahead_threads=1 / sliced_threads=0 / nr=0 / decimate=1 / interlaced=0 / bluray_compat=0 / constrained_intra=0 / bframes=3 / b_pyramid=2 / b_adapt=1 / b_bias=0 / direct=1 / weightb=1 / open_gop=0 / weightp=1 / keyint=250 / keyint_min=25 / scenecut=40 / intra_refresh=0 / rc_lookahead=0 / rc=crf / mbtree=0 / crf=22.0 / qcomp=0.60 / qpmin=0 / qpmax=69 / qpstep=4 / vbv_maxrate=62500 / vbv_bufsize=78125 / crf_max=0.0 / nal_hrd=none / ip_ratio=1.40 / pb_ratio=1.30 / aq=1:1.00
Encoded date : UTC 2017-06-21 14:26:17
Tagged date : UTC 2017-06-21 14:57:01
Color range : Limited
Color primaries : BT.709
Transfer characteristics : BT.709
Matrix coefficients : BT.709
Menus : 3

Audio
ID : 2
Format : AAC
Format/Info : Advanced Audio Codec
Format profile : LC
Codec ID : 40
Duration : 46 min 59 s
Bit rate mode : Variable
Bit rate : 160 kb/s
Maximum bit rate : 313 kb/s
Channel(s) : 2 channels
Channel positions : Front: L R
Sampling rate : 48.0 kHz
Frame rate : 46.875 FPS (1024 spf)
Compression mode : Lossy
Stream size : 53.6 MiB (6%)
Encoded date : UTC 2017-06-21 14:56:57
Tagged date : UTC 2017-06-21 14:57:01

Text
ID : 4
Format : Timed Text
Codec ID : tx3g
Duration : 46 min 52 s
Bit rate mode : Variable
Bit rate : 124 b/s
Stream size : 42.7 KiB (0%)
Forced : No
Encoded date : UTC 2017-06-21 14:57:01
Tagged date : UTC 2017-06-21 14:57:01

Menu
ID : 3
Codec ID : text
Duration : 46 min 59 s
Encoded date : UTC 2017-06-21 14:26:17
Tagged date : UTC 2017-06-21 14:57:01
Bit rate mode : CBR
Menu For : 1
Source duration : 2937200
Source_Duration_FirstFrame : 337040
Source frame count : 4
Source stream size : 92
Frame count : 4
Stream size : 92
00:00:00.000 : Chapter 1
00:19:06.080 : Chapter 2
00:32:47.120 : Chapter 3
00:40:46.160 : Chapter 4


Screenshots:

National Geographic - Explorer: The New Face of Crime (2017)

National Geographic - Explorer: The New Face of Crime (2017)

National Geographic - Explorer: The New Face of Crime (2017)

National Geographic - Explorer: The New Face of Crime (2017)