Fallen (1998)

Posted By: NaVi7
Fallen (1998)

Fallen (1998)
BDRip | MKV / AVC, 1915 Kbps | 720x304 | 2h 04mn | 2.05 GB
Francais: AC3, 448 Kbps (6 ch)
Genre: Crime | Drame | Fantasy | Thriller

John Hobbes, un policier d'elite de la brigade criminelle, a pour principe d'assister aux derniers instants de ses clients. C'est ainsi qu'il se rend a l'execution d'un serial killer, Reese. Avant d'etre conduit a la chambre a gaz, celui-ci le surprend en lui proposant une enigme et en se livrant a des invocations dans une langue etrangere. Quelques heures plus tard, Hobbes est reveille par un etrange appel.

imdb

General
Unique ID : 294190884249553591589184501933798808126 (0xDD531A741C2699EEF4D135EC85E75A3E)
Complete name : Fallen.1998.FRENCH.BRRip.x264.AC3-FUNKY.mkv
Format : Matroska
Format version : Version 4 / Version 2
File size : 2.05 GiB
Duration : 2h 4mn
Overall bit rate : 2 364 Kbps
Encoded date : UTC 2013-02-03 17:21:30
Writing application : mkvmerge v6.0.0 ('Coming Up For Air') built on Jan 21 2013 10:34:30
Writing library : libebml v1.3.0 + libmatroska v1.4.0

Video
ID : 1
Format : AVC
Format/Info : Advanced Video Codec
Format profile : High@L3.1
Format settings, CABAC : Yes
Format settings, ReFrames : 5 frames
Codec ID : V_MPEG4/ISO/AVC
Duration : 2h 4mn
Bit rate : 1 915 Kbps
Width : 720 pixels
Height : 304 pixels
Display aspect ratio : 2.35:1
Original display aspect ratio : 2.35:1
Frame rate mode : Constant
Frame rate : 23.976 fps
Color space : YUV
Chroma subsampling : 4:2:0
Bit depth : 8 bits
Scan type : Progressive
Bits/(Pixel*Frame) : 0.365
Stream size : 1.62 GiB (79%)
Writing library : x264 core 129 r2 bc13772
Encoding settings : cabac=1 / ref=5 / deblock=1:-1:-1 / analyse=0x3:0x113 / me=umh / subme=8 / psy=1 / psy_rd=1.00:0.15 / mixed_ref=1 / me_range=16 / chroma_me=1 / trellis=1 / 8x8dct=1 / cqm=0 / deadzone=21,11 / fast_pskip=1 / chroma_qp_offset=-3 / threads=12 / lookahead_threads=2 / sliced_threads=0 / nr=0 / decimate=1 / interlaced=0 / bluray_compat=0 / constrained_intra=0 / bframes=3 / b_pyramid=2 / b_adapt=2 / b_bias=0 / direct=3 / weightb=1 / open_gop=0 / weightp=2 / keyint=250 / keyint_min=23 / scenecut=40 / intra_refresh=0 / rc_lookahead=50 / rc=2pass / mbtree=1 / bitrate=1915 / ratetol=1.0 / qcomp=0.60 / qpmin=0 / qpmax=69 / qpstep=4 / cplxblur=20.0 / qblur=0.5 / ip_ratio=1.40 / aq=1:1.00
Language : French
Default : Yes
Forced : No

Audio
ID : 2
Format : AC-3
Format/Info : Audio Coding 3
Mode extension : CM (complete main)
Format settings, Endianness : Big
Codec ID : A_AC3
Duration : 2h 4mn
Bit rate mode : Constant
Bit rate : 448 Kbps
Channel(s) : 6 channels
Channel positions : Front: L C R, Side: L R, LFE
Sampling rate : 48.0 KHz
Bit depth : 16 bits
Compression mode : Lossy
Stream size : 398 MiB (19%)
Language : French
Default : Yes
Forced : No


Les captures d'ecran:

Fallen (1998)

Fallen (1998)

Fallen (1998)


Bienvenue sur mon blog!

Abonnez-vous a ma newsletter!

Pas plus de miroirs!

Si vous voulez le telecharger, mais j'ai decouvert que les liens sont morts, il suffit de laisser un commentaire ou me PM!
Download Links:
Uploaded | Rapidgator
Liens vers RapidGator et Uploaded sont dans le fichier html. Telechargez le fichier et l'ouvrir dans votre navigateur.