Fear the Walking Dead S02E08 (2016)

Posted By: Without
Fear the Walking Dead S02E08 (2016)

Fear the Walking Dead S02E08 (2016)
HDTV 720p | MKV | 1280x720 | AVC@4209 Kbps | English AC3@384 Kbps | 6 channels | 43mn 26s | 1.42 GB
Genre: Drama, Horror, Thriller

What did the world look like as it was transforming into the horrifying apocalypse depicted in The Walking Dead (2010)? This spin-off set in Los Angeles, following new characters as they face the beginning of the end of the world, will answer that question.

IMDB - 3 nominations


General
Unique ID : 173324885457267651462722075126368657395 (0x826528A0A05A03A1BA5CCBBDFAB15FF3)
Complete name : J:\Fear.the.Walking.Dead.S02E08.720p.HDTV.x264-AVS.mkv
Format : Matroska
Format version : Version 4 / Version 2
File size : 1.42 GiB
Duration : 43mn 26s
Overall bit rate : 4 686 Kbps
Encoded date : UTC 2016-08-22 01:02:33
Writing application : FastLE v2.5.0 - AVS
Writing library : libx264 + libebml + libmatroska + libfastrar

Video
ID : 1
Format : AVC
Format/Info : Advanced Video Codec
Format profile : High@L4.1
Format settings, CABAC : Yes
Format settings, ReFrames : 5 frames
Codec ID : V_MPEG4/ISO/AVC
Duration : 43mn 26s
Bit rate : 4 209 Kbps
Width : 1 280 pixels
Height : 720 pixels
Display aspect ratio : 16:9
Frame rate mode : Constant
Frame rate : 23.976 (24000/1001) fps
Color space : YUV
Chroma subsampling : 4:2:0
Bit depth : 8 bits
Scan type : Progressive
Bits/(Pixel*Frame) : 0.190
Stream size : 1.28 GiB (90%)
Writing library : x264 core 148 r2705 3f5ed56
Encoding settings : cabac=1 / ref=5 / deblock=1:0:0 / analyse=0x3:0x113 / me=umh / subme=8 / psy=1 / psy_rd=1.00:0.00 / mixed_ref=1 / me_range=16 / chroma_me=1 / trellis=1 / 8x8dct=1 / cqm=0 / deadzone=21,11 / fast_pskip=1 / chroma_qp_offset=-2 / threads=22 / lookahead_threads=3 / sliced_threads=0 / nr=0 / decimate=1 / interlaced=0 / bluray_compat=0 / constrained_intra=0 / bframes=3 / b_pyramid=2 / b_adapt=2 / b_bias=0 / direct=3 / weightb=1 / open_gop=0 / weightp=2 / keyint=250 / keyint_min=23 / scenecut=40 / intra_refresh=0 / rc_lookahead=50 / rc=crf / mbtree=1 / crf=18.0 / qcomp=0.60 / qpmin=0 / qpmax=69 / qpstep=4 / ip_ratio=1.40 / aq=1:1.00
Default : Yes
Forced : No
Color range : Limited
Matrix coefficients : BT.709

Audio
ID : 2
Format : AC-3
Format/Info : Audio Coding 3
Mode extension : CM (complete main)
Format settings, Endianness : Big
Codec ID : A_AC3
Duration : 43mn 26s
Bit rate mode : Constant
Bit rate : 384 Kbps
Channel(s) : 6 channels
Channel positions : Front: L C R, Side: L R, LFE
Sampling rate : 48.0 KHz
Frame rate : 31.250 fps (1536 spf)
Compression mode : Lossy
Stream size : 119 MiB (8%)
Default : Yes
Forced : No


HDTV 720p Screenshots

Fear the Walking Dead S02E08 (2016)

Fear the Walking Dead S02E08 (2016)

Fear the Walking Dead S02E08 (2016)


Come Visit My Blog (•‿•)