Tags
Language
Tags

Feast (2005)

Posted By: Tavaz
1080p (FullHD) / BDRip IMDb
Feast (2005)

Feast (2005)
BDRip | MKV | 1920x816 | H264 @ 10051 kbps | DTS @ 768 kbps | 1 h 26 min | 6.56 GiB
Genre: Action, Horror, Thriller, Comedy

Trapped in a remote tavern, a group of strangers must band together for survival. Outside the bar, a horde of ravenous, flesh-eating monsters are trying to break in and dine on the frightened humans inside.

feast.2005.limited.1080p.bluray.x264-hv.dut.srt (52.1 KB)
feast.2005.limited.1080p.bluray.x264-hv.mkv (6.6 GB)



General
Unique ID : 218210518826011315308756741304962507039 (0xA429D1368EAE046592413B5F6B57E11F)
Complete name : ./feast.2005.limited.1080p.bluray.x264-hv.mkv
Format : Matroska
Format version : Version 2
File size : 6.56 GiB
Duration : 1 h 26 min
Overall bit rate : 10.8 Mb/s
Encoded date : UTC 2009-08-27 22:58:51
Writing application : mkvmerge v2.9.7 ('Tenderness') built on Jul 1 2009 18:43:35
Writing library : libebml v0.7.7 + libmatroska v0.8.1

Video
ID : 1
Format : AVC
Format/Info : Advanced Video Codec
Format profile : High@L4.1
Format settings : CABAC / 5 Ref Frames
Format settings, CABAC : Yes
Format settings, RefFrames : 5 frames
Codec ID : V_MPEG4/ISO/AVC
Duration : 1 h 26 min
Bit rate : 10.1 Mb/s
Width : 1 920 pixels
Height : 816 pixels
Display aspect ratio : 2.35:1
Frame rate mode : Constant
Frame rate : 23.976 FPS
Color space : YUV
Chroma subsampling : 4:2:0
Bit depth : 8 bits
Scan type : Progressive
Bits/(Pixel*Frame) : 0.268
Stream size : 5.96 GiB (91%)
Writing library : x264 core 72 r1217 5e9ae4c
Encoding settings : cabac=1 / ref=5 / deblock=1:0:0 / analyse=0x3:0x133 / me=umh / subme=7 / psy=1 / psy_rd=1.0:0.0 / mixed_ref=1 / me_range=16 / chroma_me=1 / trellis=1 / 8x8dct=1 / cqm=0 / deadzone=21,11 / chroma_qp_offset=-2 / threads=12 / nr=0 / decimate=1 / mbaff=0 / bframes=3 / b_pyramid=1 / b_adapt=1 / b_bias=0 / direct=1 / wpredb=1 / keyint=250 / keyint_min=25 / scenecut=40 / rc=2pass / mbtree=0 / bitrate=10051 / ratetol=1.0 / qcomp=0.60 / qpmin=10 / qpmax=51 / qpstep=4 / cplxblur=20.0 / qblur=0.5 / ip_ratio=1.40 / pb_ratio=1.30 / aq=1:1.00
Language : English
Default : Yes
Forced : No

Audio
ID : 2
Format : DTS
Format/Info : Digital Theater Systems
Mode : 16
Format settings, Endianness : Big
Codec ID : A_DTS
Duration : 1 h 26 min
Bit rate mode : Constant
Bit rate : 768 kb/s
Channel(s) : 6 channels
Channel positions : Front: L C R, Side: L R, LFE
Sampling rate : 48.0 kHz
Frame rate : 93.750 FPS (512 SPF)
Bit depth : 24 bits
Compression mode : Lossy
Stream size : 477 MiB (7%)
Default : Yes
Forced : No





Feast (2005)


Feast (2005)


Feast (2005)


Feast (2005)


Feast (2005)