Ferdinand (2017)

Posted By: JohnSmith
720p (HD) / BDRip IMDb
Ferdinand (2017)

Ferdinand (2017)
BDRip | MKV / AVC@1865 kb/s | 848x352 | 1h 48mn | 1.89 GB
Italian (dubbed): AC3, 640 kb/s (6 ch) | Subtitles: Italian
BDRip 720p | MKV / AVC@4370 kb/s | 1280x536 | 1h 48mn | 3.88 GB
Italian (dubbed): DTS, 768 kb/s (6 ch) | Subtitles: Italian
Genre: Animation | Adventure | Comedy | Family | Fantasy

Ferdinand è un toro gigantesco ma dal buon cuore. Dopo essere stato scambiato per un animale pericoloso, viene catturato e separato dai suoi cari. Determinato a ritornare dalla sua famiglia, Ferdinand metterà insieme una squadra di disadattati che l'aiuterà a vivere la più grande avventura della sua vita.

IMDB - Nominated for 1 Oscar. Another 13 nominations.



General
Unique ID : 174345532201358446512448417404654804809 (0x8329BA65A85B4A939FE2BB91E44D5F49)
Complete name : A:\Ferdinand.2017.iTA.BDRip.480p.mkv
Format : Matroska
Format version : Version 4 / Version 2
File size : 1.89 GiB
Duration : 1 h 48 min
Overall bit rate : 2 507 kb/s
Encoded date : UTC 2018-03-13 18:01:03
Writing application : mkvmerge v8.3.0 ('Over the Horizon') 64bit
Writing library : libebml v1.3.1 + libmatroska v1.4.2

Video
ID : 1
Format : AVC
Format/Info : Advanced Video Codec
Format profile : Baseline@L3
Format settings, CABAC : No
Format settings, ReFrames : 1 frame
Codec ID : V_MPEG4/ISO/AVC
Duration : 1 h 48 min
Bit rate : 1 865 kb/s
Width : 848 pixels
Height : 352 pixels
Display aspect ratio : 2.40:1
Frame rate mode : Constant
Frame rate : 23.976 (24000/1001) FPS
Color space : YUV
Chroma subsampling : 4:2:0
Bit depth : 8 bits
Scan type : Progressive
Bits/(Pixel*Frame) : 0.261
Stream size : 1.41 GiB (74%)
Writing library : x264 core 155 r2901 7d0ff22
Encoding settings : cabac=0 / ref=1 / deblock=0:0:0 / analyse=0:0 / me=dia / subme=0 / psy=1 / psy_rd=1.00:0.00 / mixed_ref=0 / me_range=16 / chroma_me=1 / trellis=1 / 8x8dct=0 / cqm=0 / deadzone=21,11 / fast_pskip=1 / chroma_qp_offset=0 / threads=11 / lookahead_threads=1 / sliced_threads=0 / nr=0 / decimate=1 / interlaced=0 / bluray_compat=0 / constrained_intra=0 / bframes=0 / weightp=0 / keyint=240 / keyint_min=23 / scenecut=0 / intra_refresh=0 / rc=2pass / mbtree=0 / bitrate=1865 / ratetol=1.0 / qcomp=0.60 / qpmin=0 / qpmax=69 / qpstep=4 / cplxblur=20.0 / qblur=0.5 / ip_ratio=1.40 / aq=0
Default : Yes
Forced : No

Audio
ID : 2
Format : AC-3
Format/Info : Audio Coding 3
Format settings, Endianness : Big
Codec ID : A_AC3
Duration : 1 h 48 min
Bit rate mode : Constant
Bit rate : 640 kb/s
Channel(s) : 6 channels
Channel positions : Front: L C R, Side: L R, LFE
Sampling rate : 48.0 kHz
Frame rate : 31.250 FPS (1536 spf)
Bit depth : 16 bits
Compression mode : Lossy
Stream size : 495 MiB (26%)
Title : AC3 iTA
Language : Italian
Service kind : Complete Main
Default : Yes
Forced : No

Text
ID : 3
Format : UTF-8
Codec ID : S_TEXT/UTF8
Codec ID/Info : UTF-8 Plain Text
Duration : 1 h 46 min
Bit rate : 40 b/s
Count of elements : 1147
Stream size : 31.6 KiB (0%)
Title : REGULAR iTA
Language : Italian
Default : Yes
Forced : No





General
Unique ID : 213212965071693205465133878408529811985 (0xA06752CA19DA7ADAA7FB863EC7479A11)
Complete name : A:\Ferdinand.2017.iTA.BDRip.720p.mkv
Format : Matroska
Format version : Version 4 / Version 2
File size : 3.88 GiB
Duration : 1 h 48 min
Overall bit rate : 5 142 kb/s
Encoded date : UTC 2018-03-13 18:00:08
Writing application : mkvmerge v8.3.0 ('Over the Horizon') 64bit
Writing library : libebml v1.3.1 + libmatroska v1.4.2

Video
ID : 1
Format : AVC
Format/Info : Advanced Video Codec
Format profile : High@L4.1
Format settings, CABAC : Yes
Format settings, ReFrames : 5 frames
Codec ID : V_MPEG4/ISO/AVC
Duration : 1 h 48 min
Bit rate : 4 372 kb/s
Width : 1 280 pixels
Height : 536 pixels
Display aspect ratio : 2.40:1
Frame rate mode : Constant
Frame rate : 23.976 (24000/1001) FPS
Color space : YUV
Chroma subsampling : 4:2:0
Bit depth : 8 bits
Scan type : Progressive
Bits/(Pixel*Frame) : 0.266
Stream size : 3.30 GiB (85%)
Writing library : x264 core 152 r2851 ba24899
Encoding settings : cabac=1 / ref=5 / deblock=1:-2:-2 / analyse=0x3:0x133 / me=hex / subme=7 / psy=1 / psy_rd=1.05:0.00 / mixed_ref=1 / me_range=16 / chroma_me=1 / trellis=1 / 8x8dct=1 / cqm=0 / deadzone=21,11 / fast_pskip=0 / chroma_qp_offset=-2 / threads=17 / lookahead_threads=2 / sliced_threads=0 / nr=0 / decimate=0 / interlaced=0 / bluray_compat=0 / constrained_intra=0 / bframes=3 / b_pyramid=2 / b_adapt=1 / b_bias=0 / direct=3 / weightb=1 / open_gop=0 / weightp=2 / keyint=240 / keyint_min=23 / scenecut=40 / intra_refresh=0 / rc_lookahead=40 / rc=2pass / mbtree=1 / bitrate=4372 / ratetol=1.0 / qcomp=0.65 / qpmin=0 / qpmax=69 / qpstep=4 / cplxblur=20.0 / qblur=0.5 / vbv_maxrate=50000 / vbv_bufsize=50000 / nal_hrd=none / filler=0 / ip_ratio=1.40 / aq=2:1.00
Language : English
Default : Yes
Forced : No

Audio
ID : 2
Format : DTS
Format/Info : Digital Theater Systems
Mode : 16
Format settings, Endianness : Big
Codec ID : A_DTS
Duration : 1 h 48 min
Bit rate mode : Constant
Bit rate : 768 kb/s
Channel(s) : 6 channels
Channel positions : Front: L C R, Side: L R, LFE
Sampling rate : 48.0 kHz
Frame rate : 93.750 FPS (512 spf)
Bit depth : 24 bits
Compression mode : Lossy
Stream size : 594 MiB (15%)
Title : DTS iTA
Language : Italian
Default : Yes
Forced : No

Text
ID : 3
Format : UTF-8
Codec ID : S_TEXT/UTF8
Codec ID/Info : UTF-8 Plain Text
Duration : 1 h 46 min
Bit rate : 40 b/s
Count of elements : 1147
Stream size : 31.6 KiB (0%)
Title : REGULAR iTA
Language : Italian
Default : Yes
Forced : No




Screenshots BDRip

Ferdinand (2017)

Ferdinand (2017)

Ferdinand (2017)


Screenshots BDRip 720p

Ferdinand (2017)

Ferdinand (2017)

Ferdinand (2017)