Subcategories

Ferrell Takes the Field (2015)

Posted By: notbanned
Ferrell Takes the Field (2015)

Ferrell Takes the Field (2015)
WEB-DL | 1920x1080 | .MKV/AVC @ 9478 Kbps | 49min 10s | 3.48 GiB
Audio: English EAC3 640 kbps, 6 channels | Subs: None
Genre: Documentary | Comedy | Sport

In the Spring of 2015 Comedian Will Ferrell played 10 positions for 10 Major League Baseball teams - all on the same day. Ferrell spent one day as a player in MLB's Arizona "Cactus League". 10 teams, 10 positions, 10 uniforms… 1 glorious day. What could possibly go wrong?
More info


General
Unique ID : 195762644962100445275957211010804866948 (0x93468395031F1F9D9FD39E3842A9DF84)
Complete name : Ferrell.Takes.the.Field.2015.1080p.mkv
Format : Matroska
Format version : Version 4 / Version 2
File size : 3.48 GiB
Duration : 49 min 10 s
Overall bit rate mode : Variable
Overall bit rate : 10.1 Mb/s

Video
ID : 1
Format : AVC
Format/Info : Advanced Video Codec
Format profile : High@L4
Format settings, CABAC : Yes
Format settings, ReFrames : 4 frames
Codec ID : V_MPEG4/ISO/AVC
Duration : 49 min 10 s
Bit rate mode : Variable
Bit rate : 9 478 kb/s
Maximum bit rate : 15.0 Mb/s
Width : 1 920 pixels
Height : 1 080 pixels
Display aspect ratio : 16:9
Frame rate mode : Constant
Frame rate : 29.970 (30000/1001) FPS
Color space : YUV
Chroma subsampling : 4:2:0
Bit depth : 8 bits
Scan type : Progressive
Bits/(Pixel*Frame) : 0.153
Stream size : 3.26 GiB (94%)
Default : Yes
Forced : No
Color range : Limited
Color primaries : BT.709
Transfer characteristics : BT.709
Matrix coefficients : BT.709

Audio
ID : 2
Format : E-AC-3
Format/Info : Enhanced Audio Coding 3
Format settings, Endianness : Big
Codec ID : A_EAC3
Duration : 49 min 10 s
Bit rate mode : Constant
Bit rate : 640 kb/s
Channel(s) : 6 channels
Channel positions : Front: L C R, Side: L R, LFE
Sampling rate : 48.0 kHz
Frame rate : 187.500 FPS (256 spf)
Compression mode : Lossy
Stream size : 225 MiB (6%)
Language : English
Service kind : Complete Main
Default : Yes
Forced : No

Text
ID : 3
Format : UTF-8
Codec ID : S_TEXT/UTF8
Codec ID/Info : UTF-8 Plain Text
Duration : 48 min 46 s
Bit rate : 94 b/s
Count of elements : 907
Stream size : 33.7 KiB (0%)
Language : English
Default : No
Forced : No


Screenshots:

Ferrell Takes the Field (2015)

Ferrell Takes the Field (2015)

Ferrell Takes the Field (2015)

Ferrell Takes the Field (2015)