PBS American Experience - Fidel Castro (2004)

Posted By: Tutorial
PBS American Experience - Fidel Castro (2004)

PBS American Experience - Fidel Castro (2004)
PDTV | 704 x 384 | .AVI/DivX @ 1588 Kbps | 2x~54mn | English AC-3 192 Kbps, 2 channels | 1.36 GB
Genre: Documentary, Biography, History

"On January 3, 1959, a column of victorious young rebels advanced along Cuba's main highway towards Havana. At the head of the column rode 33-year-old Fidel Castro Ruz. As he went by, a Cuban peasant turned to an American journalist, and said: "There he goes, the hope of a people." Over the next few decades, by the force of his personality and the might of his Soviet benefactor, Castro turned himself and Cuba into significant players on the world stage. He did so while surviving the hostility of ten consecutive U.S. presidents, an invasion, several CIA assassination attempts and an economic embargo. Castro's face with its trademark beard, has become an iconic image worldwide, yet the man himself remains an enigma to all but a few. Through interviews with relatives, childhood friends, fellow rebel leaders, Bay of Pigs veterans, human rights activists and journalists, American Experience: Fidel Castro constructs an intimate and revealing portrait of the most resilient of leaders."
Part 1
This documentary begins with 1950s television footage of Fidel Castro's first moments as prime minister of Cuba. "At the age of 32," says a newsreader, "you now have in your hands a great deal of power and a great deal of responsibility. Aren't you a little frightened by this?" The vision switches to Castro, dressed unaccountably in pyjamas and sitting in a very feminine living room. He plumps a cushion and nods. "Not frightened because I have self-confidence."
This is a beautifully made documentary packed with rare archive footage and photographs. It shows Castro's childhood, his recklessness as a youth, his blossoming talents at the University of Havana and then his swift and complex ride to lawyer, jailbird, guerilla, politician and revolutionary. Adored and deplored, Castro's life makes compelling viewing.

Part 2
After the Bay of Pigs fiasco Fidel Castro consolidates his power in Cuba. He declares publicly that he's a Marxist Leninist, establishes very close relations with the Soviet Union, and begins to turn Cuba into a socialist state. However, in October 1962 the US realises Cuba has allowed the Soviets to build missile sites from which they could launch nuclear missiles into the U.S. This leads to a crisis that is considered the closest the world came to a nuclear war.
During the following 20 years Cuba becomes a prime example of a socialist state, with free education and free health services for its population. Castro provides military and logistic aid to various liberation movements, notably to the Angolan revolutionaries who were fighting the South Africans. After the collapse of the Soviet Union, the Cuban revolution experiences its worst economic crisis. The continued U.S. embargo isolates the country, but he and his regime manage to survive by diversifying into other non-traditional areas, and seeking foreign investment in areas such as tourism.

More info: IMDB

Related Documentaries:
Fidel (1971)
Al-Jazeera Witness - Cuba's Unfinished Spaces (2016)
Finding Fidel: The Journey of Erik Durschmied (2010)
Arte - Faith of the Century: A History of Communism (1999)

General
Complete name : PBS.Fidel.Castro.Part.1of2.avi
Format : AVI
Format/Info : Audio Video Interleave
File size : 701 MiB
Duration : 54mn 43s
Overall bit rate : 1 792 Kbps
Writing application : Nandub v1.0rc2
Writing library : Nandub build 1852/release

Video
ID : 0
Format : MPEG-4 Visual
Format settings, BVOP : 1
Format settings, QPel : Yes
Format settings, GMC : No warppoints
Format settings, Matrix : Default (MPEG)
Codec ID : DX50
Codec ID/Hint : DivX 5
Duration : 54mn 43s
Bit rate : 1 588 Kbps
Width : 704 pixels
Height : 384 pixels
Display aspect ratio : 16:9
Frame rate : 29.970 fps
Color space : YUV
Chroma subsampling : 4:2:0
Bit depth : 8 bits
Scan type : Progressive
Compression mode : Lossy
Bits/(Pixel*Frame) : 0.196
Stream size : 622 MiB (89%)
Writing library : DivX 1338m

Audio
ID : 1
Format : AC-3
Format/Info : Audio Coding 3
Mode extension : CM (complete main)
Codec ID : 2000
Duration : 54mn 43s
Bit rate mode : Constant
Bit rate : 192 Kbps
Channel(s) : 2 channels
Channel positions : Front: L R
Sampling rate : 48.0 KHz
Bit depth : 16 bits
Compression mode : Lossy
Delay relative to video : 26ms
Stream size : 75.1 MiB (11%)
Alignment : Split accross interleaves
Interleave, duration : 33 ms (1.00 video frame)
Interleave, preload duration : 500 ms
Screenshots

PBS American Experience - Fidel Castro (2004)

PBS American Experience - Fidel Castro (2004)

PBS American Experience - Fidel Castro (2004)

PBS American Experience - Fidel Castro (2004)

Welcome to my blog - daily update!

PBS American Experience - Fidel Castro (2004)