IMAX - Fires of Kuwait (1992)

Posted By: vivid23
IMAX - Fires of Kuwait (1992)

IMAX - Fires of Kuwait (1992)
HDTV | 1280x720 | MKV/x264 @ 2688 Kbps | 35mn | Audio: English AC3 448 kbps, 6 channels | Subs: None | 821 MB
Genre: Documentary

After Saddam Hussein had the Kuwait Oil wells lit up, teams from all over the world fought those fires for months. They had to save the oil resources, as well as reduce air pollution. The different teams developed different techniques of extinguishing the fires. From TNT-shockwaves blowing out the flames to Tank-mounted twin MIG-jet-engines (from Hungary) blasting away the flames (and nearly lifting the tank into the air), man's emergency creativity can be seen at it's best.

Video
ID : 1
Format : AVC
Format/Info : Advanced Video Codec
Format profile : High@L4.1
Format settings, CABAC : Yes
Format settings, ReFrames : 8 frames
Muxing mode : Header stripping
Codec ID : V_MPEG4/ISO/AVC
Duration : 35mn 52s
Bit rate : 2 688 Kbps
Width : 1 280 pixels
Height : 720 pixels
Display aspect ratio : 16:9
Frame rate : 29.970 fps
Color space : YUV
Chroma subsampling : 4:2:0
Bit depth : 8 bits
Scan type : Progressive
Bits/(Pixel*Frame) : 0.097
Stream size : 690 MiB (84%)
Language : English

Audio
ID : 2
Format : AC-3
Format/Info : Audio Coding 3
Mode extension : CM (complete main)
Muxing mode : Header stripping
Codec ID : A_AC3
Duration : 35mn 52s
Bit rate mode : Constant
Bit rate : 448 Kbps
Channel(s) : 6 channels
Channel positions : Front: L C R, Side: L R, LFE
Sampling rate : 48.0 KHz
Bit depth : 16 bits
Compression mode : Lossy
Stream size : 115 MiB (14%)


IMAX - Fires of Kuwait (1992)

IMAX - Fires of Kuwait (1992)


Feel free to contact me when links are dead