Fixation (2012)

Posted By: ParRus
Fixation (2012)

Fixation (2012)
BDRip | English | MKV | 1278 x 720 | AVC ~3935 Kbps | 23.976 fps
AC-3 | 384 kbps | 48.0 KHz | 6 channels | 00:40:19 | 1.24 GB
Genre: Documentary, Sport

Fixation is a documentary, focusing on the thrilling world of fixed gear cycling. This film captures the excitement and popularity of this growing sport from all perspectives. With the resurgence of this original form of cycling, we discover the appeal to having only one gear. Though technology has developed multiple speed bicycles, for faster and easier riding, both fixed and freewheel single speeds continue to have a strong following. The range of riders is vast, from professionals to the casual everyday rider. Their styles and motives are different, but their outcome seems to be the same: the freedom, the simplicity and the challenge of having one gear is what brings them back to the basics. We explore the full spectrum of this lifestyle: Messengers, Olympic Racing, City Riders, Bike Polo, Brakeless, Freestyle and more. "Fixation" showcases the different personalities of those involved with fixed gear cycling community, in San Francisco, Los Angeles and San Jose.
Directors: Alex Trudeau Viriato
Country: USA
IMDB info

General
Complete name : Fixation.2012.mkv
Format : Matroska
Format version : Version 2
File size : 1.24 GiB
Duration : 40mn 19s
Overall bit rate : 4 407 Kbps
Encoded date : UTC 2013-01-17 05:51:46
Writing application : mkvmerge v5.8.0 ('No Sleep / Pillow') built on Oct 10 2012 22:05:47
Writing library : libebml v1.2.3 + libmatroska v1.3.0
Video #1
ID : 1
Format : AVC
Format/Info : Advanced Video Codec
Format profile : High@L3.1
Format settings, CABAC : No
Format settings, ReFrames : 2 frames
Codec ID : V_MPEG4/ISO/AVC
Duration : 40mn 19s
Bit rate : 3 935 Kbps
Width : 1 278 pixels
Height : 720 pixels
Display aspect ratio : 16:9
Frame rate : 23.976 fps
Color space : YUV
Chroma subsampling : 4:2:0
Bit depth : 8 bits
Scan type : Progressive
Bits/(Pixel*Frame) : 0.178
Stream size : 1.11 GiB (89%)
Language : English
Color primaries : BT.709-5, BT.1361, IEC 61966-2-4, SMPTE RP177
Transfer characteristics : BT.709-5, BT.1361
Matrix coefficients : BT.709-5, BT.1361, IEC 61966-2-4 709, SMPTE RP177
Audio #2
ID : 2
Format : AC-3
Format/Info : Audio Coding 3
Mode extension : CM (complete main)
Codec ID : A_AC3
Duration : 40mn 19s
Bit rate mode : Constant
Bit rate : 384 Kbps
Channel(s) : 6 channels
Channel positions : Front: L C R, Side: L R, LFE
Sampling rate : 48.0 KHz
Bit depth : 16 bits
Compression mode : Lossy
Stream size : 111 MiB (9%)
Language : English

Fixation (2012)

Fixation (2012)

Fixation (2012)

Fixation (2012)

For more, Visit my AH-blog

no mirrors please, Follow The Rules