BBC - Flatpack Empire: Series 1 (2018)

Posted By: Tutorial
720p (HD) / HDTV IMDb
BBC - Flatpack Empire: Series 1 (2018)

BBC - Flatpack Empire: Series 1 (2018)
HDTV | 1280 x 720 | .MP4/AVC @ 2800 Kbps | 3x~59mn | 3.66 GB
Audio: English AAC 160 Kbps, 2 channels | Subs: English
Genre: Documentary

IKEA is not like any other company - the Swedish furniture retailer is driven by a powerful philosophy, to 'create a better everyday life for the many people', and with 900 million customers a year, this series goes behind the scenes to find the secret to its global success.

Part 1:
In this first episode, we see how IKEA are starting to open up their design headquarters to outside influences. Tom Dixon - the 'enfant terrible' of British design, has been invited to collaborate on a new bed-sofa - but with deadlines looming and the world's furniture press watching, neither he nor IKEA fully agree what the product should be. We follow the production of the famous catalogue, where Sara Blomquist is in charge of devising the 'perfect' front-cover image. Can she unite different voices in the company and create an image that will be seen by millions of people around the world?

Part 2:
In episode two, we see what it takes to get new products from initial design to stores around the world. One of Ikea's newest designers, Hanna-Kaarina Heikkila, wants to challenge mass production by creating an 'imperfect vase' that has the fingermarks of the creator - she travels to China to see if her idea is possible.

Part 3:
In episode three, we follow Mia Lundstrom as she takes on the company's biggest challenge in a generation - pushing into India with an aggressive expansion plan. Not only is IKEA bringing their stores and products, but their unique culture and values. With over a billion potential customers, how will the unique company brand work - will India understand IKEA?

General
Complete name : BBC.Flatpack.Empire.Series.1.1of3.mp4
Format : MPEG-4
Format profile : Base Media
Codec ID : isom (isom)
File size : 1.22 GiB
Duration : 59 min 7 s
Overall bit rate mode : Variable
Overall bit rate : 2 955 kb/s
Encoded date : UTC 2018-02-21 15:03:59
Tagged date : UTC 2018-02-21 15:03:59
Writing application : My MP4Box GUI 0.6.0.6

Video
ID : 1
Format : AVC
Format/Info : Advanced Video Codec
Format profile : High@L4.1
Format settings, CABAC : Yes
Format settings, ReFrames : 4 frames
Codec ID : avc1
Codec ID/Info : Advanced Video Coding
Duration : 59 min 7 s
Bit rate : 2 800 kb/s
Maximum bit rate : 18.7 Mb/s
Width : 1 280 pixels
Height : 720 pixels
Display aspect ratio : 16:9
Frame rate mode : Constant
Frame rate : 25.000 FPS
Color space : YUV
Chroma subsampling : 4:2:0
Bit depth : 8 bits
Scan type : Progressive
Bits/(Pixel*Frame) : 0.122
Stream size : 1.15 GiB (94%)
Title : BBC.Flatpack.Empire.Series.1.1of3.720p.HDTV.x264.AAC.
Writing library : x264 core 130 r2273 b3065e6
Encoding settings : cabac=1 / ref=1 / deblock=1:0:0 / analyse=0x3:0x113 / me=hex / subme=2 / psy=1 / psy_rd=1.00:0.00 / mixed_ref=0 / me_range=16 / chroma_me=1 / trellis=0 / 8x8dct=1 / cqm=0 / deadzone=21,11 / fast_pskip=1 / chroma_qp_offset=0 / threads=6 / lookahead_threads=2 / sliced_threads=0 / nr=0 / decimate=1 / interlaced=0 / bluray_compat=0 / constrained_intra=0 / bframes=3 / b_pyramid=2 / b_adapt=1 / b_bias=0 / direct=1 / weightb=1 / open_gop=0 / weightp=1 / keyint=250 / keyint_min=25 / scenecut=40 / intra_refresh=0 / rc_lookahead=10 / rc=abr / mbtree=1 / bitrate=2800 / ratetol=1.0 / qcomp=0.60 / qpmin=0 / qpmax=69 / qpstep=4 / vbv_maxrate=62500 / vbv_bufsize=78125 / nal_hrd=none / ip_ratio=1.40 / aq=1:1.00
Encoded date : UTC 2018-02-21 14:03:54
Tagged date : UTC 2018-02-21 15:04:30
Color range : Limited
Color primaries : BT.709
Transfer characteristics : BT.709
Matrix coefficients : BT.709

Audio
ID : 2
Format : AAC
Format/Info : Advanced Audio Codec
Format profile : LC
Codec ID : 40
Duration : 59 min 7 s
Bit rate mode : Variable
Bit rate : 160 kb/s
Maximum bit rate : 236 kb/s
Channel(s) : 2 channels
Channel positions : Front: L R
Sampling rate : 48.0 kHz
Frame rate : 46.875 FPS (1024 spf)
Compression mode : Lossy
Stream size : 67.6 MiB (5%)
Title : BBC.Flatpack.Empire.Series.1.1of3.720p.HDTV.x264.AAC
Language : English
Encoded date : UTC 2018-02-21 15:04:25
Tagged date : UTC 2018-02-21 15:04:30

Text
ID : 3
Format : Timed Text
Codec ID : tx3g
Duration : 58 min 34 s
Bit rate mode : Variable
Bit rate : 224 b/s
Stream size : 95.9 KiB (0%)
Title : BBC.Flatpack.Empire.Series.1.1of3.720p.HDTV.x264.AAC
Forced : No
Encoded date : UTC 2018-02-21 15:04:30
Tagged date : UTC 2018-02-21 15:04:30
Screenshots

BBC - Flatpack Empire: Series 1 (2018)

BBC - Flatpack Empire: Series 1 (2018)

BBC - Flatpack Empire: Series 1 (2018)

Welcome to my blog - daily update!

BBC - Flatpack Empire: Series 1 (2018)