Flimmer (2012)

Posted By: ParRus
Flimmer (2012)

Flimmer (2012)
BDRip | Swedish | MKV | 1280 x 544 | AVC ~5091 Kbps | 25 fps
DTS | 1510 kbps | 48.0 KHz | 6 channels | 1h 34mn | 4.36 GB
Genre: Comedy, Drama

There is something going on in the small town of Backberga. The towns proud telecom company Unicom is just about to launch a new modern profile when they discover that there is something lurking in the outskirts of Backberga. An accident triggers a power failure, which leads to a chain of events,mishaps and love stories. Flicker is a warm comic story about people trying to find their place within the modern society.
Directors: Patrik Eklund
Country: Sweden
IMDB info

General
Complete name : Flimmer.2012.mkv
Format : Matroska
Format version : Version 2
File size : 4.37 GiB
Duration : 1h 34mn
Overall bit rate : 6 595 Kbps
Encoded date : UTC 2013-01-30 19:18:02
Writing application : mkvmerge v4.1.1 ('Bouncin' Back') built on Jul 3 2010 22:54:08
Writing library : libebml v1.0.0 + libmatroska v1.0.0
Video #1
ID : 1
Format : AVC
Format/Info : Advanced Video Codec
Format profile : High@L3.1
Format settings, CABAC : Yes
Format settings, ReFrames : 5 frames
Codec ID : V_MPEG4/ISO/AVC
Duration : 1h 34mn
Bit rate : 5 091 Kbps
Width : 1 280 pixels
Height : 544 pixels
Display aspect ratio : 2.35:1
Frame rate : 25.000 fps
Color space : YUV
Chroma subsampling : 4:2:0
Bit depth : 8 bits
Scan type : Progressive
Bits/(Pixel*Frame) : 0.292
Stream size : 3.28 GiB (75%)
Writing library : x264 core 129 r2245 bc13772
Encoding settings : cabac=1 / ref=5 / deblock=1:0:0 / analyse=0x3:0x133 / me=umh / subme=7 / psy=1 / psy_rd=1.00:0.00 / mixed_ref=1 / me_range=16 / chroma_me=1 / trellis=1 / 8x8dct=1 / cqm=0 / deadzone=21,11 / fast_pskip=0 / chroma_qp_offset=-2 / threads=6 / lookahead_threads=1 / sliced_threads=0 / nr=0 / decimate=1 / interlaced=0 / bluray_compat=0 / constrained_intra=0 / bframes=3 / b_pyramid=2 / b_adapt=2 / b_bias=0 / direct=3 / weightb=1 / open_gop=0 / weightp=2 / keyint=250 / keyint_min=25 / scenecut=40 / intra_refresh=0 / rc_lookahead=50 / rc=2pass / mbtree=1 / bitrate=5091 / ratetol=1.0 / qcomp=0.60 / qpmin=0 / qpmax=69 / qpstep=4 / cplxblur=20.0 / qblur=0.5 / ip_ratio=1.40 / aq=1:1.00
Language : Swedish
Audio #2
ID : 2
Format : DTS
Format/Info : Digital Theater Systems
Muxing mode : Header stripping
Codec ID : A_DTS
Duration : 1h 34mn
Bit rate mode : Constant
Bit rate : 1 510 Kbps
Channel(s) : 6 channels
Channel positions : Front: L C R, Side: L R, LFE
Sampling rate : 48.0 KHz
Bit depth : 24 bits
Compression mode : Lossy
Stream size : 1 023 MiB (23%)
Language : Swedish

ScreenShots

Flimmer (2012)

Flimmer (2012)

Flimmer (2012)

Flimmer (2012)

Flimmer (2012)

For more, Visit my AH-blog

no mirrors please, Follow The Rules