Flowering Gardens (2012)

Posted By: ParRus
Flowering Gardens (2012)

Flowering Gardens (2012)
BDRip 1080p | English | MKV | 1920 x 1080 | AVC ~7151 Kbps | 23.976 fps
DTS | 1510 kbps | 48.0 KHz | 6 channels | 1h 7mn | 4.18 GB
Genre: Documentary

Now you don't need a green thumb to enjoy a the relaxing scenery of a captivating natural garden! BluScenes Flowering Gardens features the sunlight-splashed colors of beautiful annual and perennial flowers. Scene One of Flowering Gardens includes the main garden tour. Scene Two features a lockdown shot of a soothing waterlily pond. Both sections can be seamlessly and infinitely looped.
General
Complete name : BluScenes.Flowering.Gardens.2012.mkv
Format : Matroska
Format version : Version 4 / Version 2
File size : 4.18 GiB
Duration : 1h 7mn
Overall bit rate : 8 836 Kbps
Encoded date : UTC 2010-02-22 21:41:31
Writing application : mkvmerge v5.9.0 ('On The Loose') built on Dec 9 2012 15:37:01
Writing library : libebml v1.3.0 + libmatroska v1.4.0
Video #1
ID : 1
Format : AVC
Format/Info : Advanced Video Codec
Format profile : High@L4.1
Format settings, CABAC : Yes
Format settings, ReFrames : 4 frames
Codec ID : V_MPEG4/ISO/AVC
Duration : 1h 7mn
Bit rate : 7 151 Kbps
Width : 1 920 pixels
Height : 1 080 pixels
Display aspect ratio : 16:9
Frame rate : 23.976 fps
Color space : YUV
Chroma subsampling : 4:2:0
Bit depth : 8 bits
Scan type : Progressive
Bits/(Pixel*Frame) : 0.144
Stream size : 3.39 GiB (81%)
Language : English
Audio #2
ID : 2
Format : DTS
Format/Info : Digital Theater Systems
Codec ID : A_DTS
Duration : 1h 7mn
Bit rate mode : Constant
Bit rate : 1 510 Kbps
Channel(s) : 6 channels
Channel positions : Front: L C R, Side: L R, LFE
Sampling rate : 48.0 KHz
Bit depth : 24 bits
Compression mode : Lossy
Stream size : 732 MiB (17%)

ScreenShots

Flowering Gardens (2012)

Flowering Gardens (2012)

Flowering Gardens (2012)

Flowering Gardens (2012)

For more, Visit my AH-blog

no mirrors please, Follow The Rules