Forbidden Zone (1980)

Posted By: Tavaz
1080p (FullHD) / BDRip IMDb
Forbidden Zone (1980)

Forbidden Zone (1980)
BDRip | MKV | 1920x1080 | English / English | H264 @ 9150 kbps | DTS @ 1509 kbps | 1 h 13 min | 5.53 GiB
Subtitles: English
Genre: Comedy, Fantasy, Music

A mysterious door in the basement of the Hercules house leads to the Sixth Dimension by way of a gigantic set of intestine. When Frenchy slips through the door, King Fausto falls in love with her. The jealous Queen Doris takes Frenchy prisoner, and it is up to the Hercules family and friend Squeezit Henderson to rescue her.

2ba9aa31c152402dbe0df66200c4fd37.mkv (5.5 GB)



General
Unique ID : 226240055284901577454830778534928296588 (0xAA343FECF2E3BBA1AEE898FF6C63AA8C)
Complete name : ./2ba9aa31c152402dbe0df66200c4fd37.mkv
Format : Matroska
Format version : Version 4 / Version 2
File size : 5.53 GiB
Duration : 1 h 13 min
Overall bit rate : 10.8 Mb/s
Encoded date : UTC 2015-04-27 12:26:25
Writing application : mkvmerge v7.7.0 ('Six Voices') 64bit built on Feb 28 2015 23:39:33
Writing library : libebml v1.3.1 + libmatroska v1.4.2

Video
ID : 1
Format : AVC
Format/Info : Advanced Video Codec
Format profile : High@L4.1
Format settings : CABAC / 4 Ref Frames
Format settings, CABAC : Yes
Format settings, RefFrames : 4 frames
Codec ID : V_MPEG4/ISO/AVC
Duration : 1 h 13 min
Bit rate : 9 150 kb/s
Width : 1 920 pixels
Height : 1 080 pixels
Display aspect ratio : 16:9
Frame rate mode : Constant
Frame rate : 23.976 (24000/1001) FPS
Original frame rate : 23.976 (23976/1000) FPS
Color space : YUV
Chroma subsampling : 4:2:0
Bit depth : 8 bits
Scan type : Progressive
Bits/(Pixel*Frame) : 0.184
Stream size : 4.68 GiB (85%)
Title : Forbidden.Zone.1982.Black.and.White.1080p.BluRay.X264-7SinS +Commentary
Writing library : x264 core 124 r2197 69a0443
Encoding settings : cabac=1 / ref=4 / deblock=1:0:0 / analyse=0x3:0x133 / me=umh / subme=7 / psy=1 / psy_rd=1.00:0.00 / mixed_ref=1 / me_range=16 / chroma_me=1 / trellis=1 / 8x8dct=1 / cqm=0 / deadzone=21,11 / fast_pskip=0 / chroma_qp_offset=-2 / threads=12 / sliced_threads=0 / nr=0 / decimate=1 / interlaced=0 / bluray_compat=0 / constrained_intra=0 / bframes=3 / b_pyramid=2 / b_adapt=2 / b_bias=0 / direct=3 / weightb=1 / open_gop=0 / weightp=2 / keyint=250 / keyint_min=23 / scenecut=40 / intra_refresh=0 / rc_lookahead=50 / rc=2pass / mbtree=1 / bitrate=9150 / ratetol=1.0 / qcomp=0.60 / qpmin=0 / qpmax=69 / qpstep=4 / cplxblur=20.0 / qblur=0.5 / ip_ratio=1.40 / aq=1:1.00
Language : English
Default : Yes
Forced : No

Audio #1
ID : 2
Format : DTS
Format/Info : Digital Theater Systems
Mode : 16
Format settings, Endianness : Big
Codec ID : A_DTS
Duration : 1 h 13 min
Bit rate mode : Constant
Bit rate : 1 509 kb/s
Channel(s) : 6 channels
Channel positions : Front: L C R, Side: L R, LFE
Sampling rate : 48.0 kHz
Frame rate : 93.750 FPS (512 SPF)
Bit depth : 24 bits
Compression mode : Lossy
Stream size : 791 MiB (14%)
Title : Feature DTS
Language : English
Default : Yes
Forced : No

Audio #2
ID : 3
Format : MPEG Audio
Format version : Version 1
Format profile : Layer 3
Format settings : Joint stereo / MS Stereo
Mode : Joint stereo
Mode extension : MS Stereo
Codec ID : A_MPEG/L3
Codec ID/Hint : MP3
Duration : 1 h 13 min
Bit rate mode : Constant
Bit rate : 160 kb/s
Channel(s) : 2 channels
Sampling rate : 48.0 kHz
Frame rate : 41.667 FPS (1152 SPF)
Compression mode : Lossy
Stream size : 83.8 MiB (1%)
Title : Commentary with director Richard Elfman and writer-actor Matthew Bright (MP3)
Writing library : LAME3.98r
Encoding settings : -m j -V 4 -q 3 -lowpass 17.5 -b 160
Language : English
Default : No
Forced : No

Text
ID : 4
Format : UTF-8
Codec ID : S_TEXT/UTF8
Codec ID/Info : UTF-8 Plain Text
Duration : 1 h 12 min
Bit rate : 51 b/s
Count of elements : 677
Stream size : 27.4 KiB (0%)
Language : English
Default : Yes
Forced : No





Forbidden Zone (1980)


Forbidden Zone (1980)


Forbidden Zone (1980)


Forbidden Zone (1980)


Forbidden Zone (1980)