Tags
Language
Tags

Freaks (2019)

Posted By: Tavaz
1080p (FullHD) / BDRip IMDb
Freaks (2019)

Freaks (2019)
BDRip | MKV | 1920x816 | English | H265 @ 1738 kbps | AAC @ 202 kbps | 1 h 44 min | 1.42 GiB
Subtitles: English
Genre: Drama, Science Fiction, Thriller

Kept locked inside the house by her father, 7-year-old Chloe lives in fear and fascination of the outside world, where Abnormals create a constant threat - or so she believes. When a mysterious stranger offers her a glimpse of what's really happening outside, Chloe soon finds that while the truth isn't so simple, the danger is very real.

b1ec5b08c18dea7192570bedd7e0ecb6.mkv (1.4 GB)



General
Complete name : ./b1ec5b08c18dea7192570bedd7e0ecb6.mkv
Format : Matroska
Format version : Version 4 / Version 2
File size : 1.42 GiB
Duration : 1 h 44 min
Overall bit rate : 1 943 kb/s
Encoded date : UTC 2019-12-05 16:31:36
Writing application : mkvmerge v40.0.0 ('Old Town Road + Pony') 64-bit
Writing library : libebml v1.3.9 + libmatroska v1.5.2

Video
ID : 1
Format : HEVC
Format/Info : High Efficiency Video Coding
Format profile : Main 10@L4@Main
Codec ID : V_MPEGH/ISO/HEVC
Duration : 1 h 44 min
Bit rate : 1 738 kb/s
Width : 1 920 pixels
Height : 816 pixels
Display aspect ratio : 2.35:1
Frame rate mode : Constant
Frame rate : 23.976 (24000/1001) FPS
Color space : YUV
Chroma subsampling : 4:2:0
Bit depth : 10 bits
Bits/(Pixel*Frame) : 0.046
Stream size : 1.27 GiB (89%)
Default : Yes
Forced : No

Audio
ID : 2
Format : AAC
Format/Info : Advanced Audio Codec
Format profile : HE-AAC / LC
Format settings : Explicit
Codec ID : A_AAC-2
Duration : 1 h 44 min
Bit rate : 202 kb/s
Channel(s) : 6 channels
Channel(s)_Original : 17 channels
Channel positions : Front: L R, Side: 15
Sampling rate : 48.0 kHz / 24.0 kHz
Frame rate : 23.438 FPS (1024 SPF)
Compression mode : Lossy
Delay relative to video : 23 ms
Stream size : 152 MiB (10%)
Language : English
Default : Yes
Forced : No

Text
ID : 3
Format : UTF-8
Codec ID : S_TEXT/UTF8
Codec ID/Info : UTF-8 Plain Text
Duration : 1 h 39 min
Bit rate : 47 b/s
Count of elements : 1470
Stream size : 34.5 KiB (0%)
Language : English
Default : Yes
Forced : No

Menu
00:00:00.000 : :Chapter 1
00:08:23.800 : :Chapter 2
00:18:54.600 : :Chapter 3
00:26:20.800 : :Chapter 4
00:34:09.600 : :Chapter 5
00:40:43.800 : :Chapter 6
00:47:21.600 : :Chapter 7
00:57:34.800 : :Chapter 8
01:06:01.400 : :Chapter 9
01:13:50.400 : :Chapter 10
01:24:29.000 : :Chapter 11
01:33:36.400 : :Chapter 12
01:41:04.600 : :Chapter 13





Freaks (2019)


Freaks (2019)


Freaks (2019)


Freaks (2019)


Freaks (2019)