Tags
Language
Tags

Freaks (2019)

Posted By: Tavaz
1080p (FullHD) / BDRip IMDb
Freaks (2019)

Freaks (2019)
BDRip | MKV | 1920x816 | English | H264 @ 4500 kbps | AC-3 @ 448 kbps | 1 h 44 min | 3.56 GiB
Subtitles: English
Genre: Drama, Science Fiction, Thriller

Kept locked inside the house by her father, 7-year-old Chloe lives in fear and fascination of the outside world, where Abnormals create a constant threat - or so she believes. When a mysterious stranger offers her a glimpse of what's really happening outside, Chloe soon finds that while the truth isn't so simple, the danger is very real.

b73f0a3f4a1e4bfb9a147a9a5ffe195d.mkv (3.6 GB)



General
Unique ID : 239406820828979161899771191931366909961 (0xB41C139652DFED8DEDAE1F2DAC91A809)
Complete name : ./b73f0a3f4a1e4bfb9a147a9a5ffe195d.mkv
Format : Matroska
Format version : Version 4 / Version 2
File size : 3.56 GiB
Duration : 1 h 44 min
Overall bit rate : 4 861 kb/s
Movie name : RPG
Encoded date : UTC 2019-12-01 14:28:53
Writing application : HandBrake 1.2.1 2019021900
Writing library : Lavf58.20.100
ErrorDetectionType : Per level 1

Video
ID : 1
Format : AVC
Format/Info : Advanced Video Codec
Format profile : High@L4.1
Format settings : CABAC / 4 Ref Frames
Format settings, CABAC : Yes
Format settings, RefFrames : 4 frames
Codec ID : V_MPEG4/ISO/AVC
Duration : 1 h 44 min
Bit rate : 4 500 kb/s
Width : 1 920 pixels
Height : 816 pixels
Display aspect ratio : 2.35:1
Frame rate mode : Constant
Frame rate : 23.976 (24000/1001) FPS
Color space : YUV
Chroma subsampling : 4:2:0
Bit depth : 8 bits
Scan type : Progressive
Bits/(Pixel*Frame) : 0.120
Stream size : 3.16 GiB (89%)
Writing library : x264 core 152 r2854 e9a5903
Encoding settings : cabac=1 / ref=1 / deblock=1:0:0 / analyse=0x3:0x113 / me=hex / subme=2 / psy=1 / psy_rd=1.00:0.00 / mixed_ref=0 / me_range=16 / chroma_me=1 / trellis=0 / 8x8dct=1 / cqm=0 / deadzone=21,11 / fast_pskip=1 / chroma_qp_offset=0 / threads=25 / lookahead_threads=6 / sliced_threads=0 / nr=0 / decimate=1 / interlaced=0 / bluray_compat=0 / constrained_intra=0 / bframes=3 / b_pyramid=2 / b_adapt=1 / b_bias=0 / direct=1 / weightb=1 / open_gop=0 / weightp=1 / keyint=240 / keyint_min=24 / scenecut=40 / intra_refresh=0 / rc_lookahead=10 / rc=abr / mbtree=1 / bitrate=4500 / ratetol=1.0 / qcomp=0.60 / qpmin=0 / qpmax=69 / qpstep=4 / vbv_maxrate=62500 / vbv_bufsize=78125 / nal_hrd=none / filler=0 / ip_ratio=1.40 / aq=1:1.00
Default : Yes
Forced : No
Color range : Limited
Color primaries : BT.709
Transfer characteristics : BT.709
Matrix coefficients : BT.709

Audio
ID : 2
Format : AC-3
Format/Info : Audio Coding 3
Format settings, Endianness : Big
Codec ID : A_AC3
Duration : 1 h 44 min
Bit rate mode : Constant
Bit rate : 448 kb/s
Channel(s) : 6 channels
Channel positions : Front: L C R, Side: L R, LFE
Sampling rate : 48.0 kHz
Frame rate : 31.250 FPS (1536 SPF)
Bit depth : 16 bits
Compression mode : Lossy
Delay relative to video : -5 ms
Stream size : 336 MiB (9%)
Title : Surround
Language : English
Service kind : Complete Main
Default : Yes
Forced : No

Text
ID : 3
Format : ASS
Codec ID : S_TEXT/ASS
Codec ID/Info : Advanced Sub Station Alpha
Duration : 1 h 40 min
Compression mode : Lossless
Language : English
Default : No
Forced : No

Menu
00:00:00.000 : :Chapter 1
00:08:33.805 : :Chapter 2
00:19:04.644 : :Chapter 3
00:26:30.839 : :Chapter 4
00:34:19.683 : :Chapter 5
00:40:53.576 : :Chapter 6
00:47:31.599 : :Chapter 7
00:57:44.670 : :Chapter 8
01:06:11.301 : :Chapter 9
01:14:00.227 : :Chapter 10
01:24:38.824 : :Chapter 11
01:33:46.704 : :Chapter 12
01:41:14.277 : :Chapter 13





Freaks (2019)


Freaks (2019)


Freaks (2019)


Freaks (2019)


Freaks (2019)