Tags
Language
Tags

Freaks - Sie sehen aus wie wir (2019)

Posted By: Barfin
1080p (FullHD) / BDRip IMDb
Freaks - Sie sehen aus wie wir (2019)

Freaks - Sie sehen aus wie wir (2019)
BDRip 1080p | MKV / AVC@8916 kb/s | 1920x816 | 1h 45mn
Deutsch (dubbed): AC3, 384 kb/s (6 ch) | Subtitles: Deutsch | 6.82 GB
Genre: Drama | Mystery | Sci-Fi | Thriller

Eine umfangreiche Aufklärungskampagne der Regierung warnt die Bevölkerung: „Sie sehen aus wie wir – Bitte melden Sie alles Ungewöhnliche“. Gesucht werden die FREAKS – Menschen mit besonderen Fähigkeiten, die als gefährlich gelten. Währenddessen wird die 7-jährige Chloe von ihrem Vater in einem hermetisch abgeriegelten Haus festgehalten. Als sie in einem unbeobachteten Moment entwischen kann, trifft sie auf den mysteriöse Eismann Mr. Snowcone. Der alte Mann zeigt ihr die Welt außerhalb ihres tristen Wohnhauses. Nach und nach kommt Chloe hinter das Geheimnis der FREAKS. Und bringt damit nicht nur sich in Gefahr …


General
Unique ID : 230974634042277331392085827146115745077 (0xADC418AE4C865C969F33A2F09B508535)
Complete name : G:\Freaks.Sie.sehen.aus.wie.wir.2019.German.AC3.1080p.BluRay.x264.mkv
Format : Matroska
Format version : Version 4
File size : 6.82 GiB
Duration : 1 h 45 min
Overall bit rate : 9 271 kb/s
Encoded date : UTC 2019-12-29 06:42:13
Writing application : mkvmerge v7.8.0 ('River Man') 32bit built on Apr 3 2015 12:11:22
Writing library : libebml v1.3.1 + libmatroska v1.4.2

Video
ID : 1
Format : AVC
Format/Info : Advanced Video Codec
Format profile : High@L4.1
Format settings : CABAC / 5 Ref Frames
Format settings, CABAC : Yes
Format settings, ReFrames : 5 frames
Codec ID : V_MPEG4/ISO/AVC
Duration : 1 h 44 min
Bit rate : 8 916 kb/s
Width : 1 920 pixels
Height : 816 pixels
Display aspect ratio : 2.35:1
Frame rate mode : Constant
Frame rate : 23.976 (24000/1001) FPS
Color space : YUV
Chroma subsampling : 4:2:0
Bit depth : 8 bits
Scan type : Progressive
Bits/(Pixel*Frame) : 0.237
Stream size : 6.53 GiB (96%)
Writing library : x264 core 158 r2988 7817004
Encoding settings : cabac=1 / ref=5 / deblock=1:0:0 / analyse=0x3:0x113 / me=umh / subme=8 / psy=1 / psy_rd=1.00:0.00 / mixed_ref=1 / me_range=16 / chroma_me=1 / trellis=2 / 8x8dct=1 / cqm=0 / deadzone=21,11 / fast_pskip=1 / chroma_qp_offset=-2 / threads=16 / lookahead_threads=2 / sliced_threads=0 / nr=0 / decimate=1 / interlaced=0 / bluray_compat=0 / constrained_intra=0 / bframes=3 / b_pyramid=2 / b_adapt=2 / b_bias=0 / direct=3 / weightb=1 / open_gop=0 / weightp=2 / keyint=240 / keyint_min=23 / scenecut=40 / intra_refresh=0 / rc_lookahead=50 / rc=2pass / mbtree=1 / bitrate=8916 / ratetol=1.0 / qcomp=0.60 / qpmin=0 / qpmax=69 / qpstep=4 / cplxblur=20.0 / qblur=0.5 / ip_ratio=1.40 / aq=1:1.00
Default : Yes
Forced : No

Audio
ID : 2
Format : AC-3
Format/Info : Audio Coding 3
Commercial name : Dolby Digital
Codec ID : A_AC3
Duration : 1 h 45 min
Bit rate mode : Constant
Bit rate : 384 kb/s
Channel(s) : 6 channels
Channel layout : L R C LFE Ls Rs
Sampling rate : 48.0 kHz
Frame rate : 31.250 FPS (1536 SPF)
Bit depth : 16 bits
Compression mode : Lossy
Delay relative to video : 22 ms
Stream size : 289 MiB (4%)
Language : German
Service kind : Complete Main
Default : Yes
Forced : Yes

Text #1
ID : 3
Format : UTF-8
Codec ID : S_TEXT/UTF8
Codec ID/Info : UTF-8 Plain Text
Duration : 1 h 3 min
Bit rate : 0 b/s
Count of elements : 13
Stream size : 389 Bytes (0%)
Title : forced
Language : German
Default : Yes
Forced : Yes

Text #2
ID : 4
Format : UTF-8
Codec ID : S_TEXT/UTF8
Codec ID/Info : UTF-8 Plain Text
Duration : 1 h 39 min
Bit rate : 53 b/s
Count of elements : 944
Stream size : 39.3 KiB (0%)
Title : full
Language : German
Default : No
Forced : No

Menu
00:00:00.000 : :Chapter 01
00:08:33.763 : :Chapter 02
00:19:04.643 : :Chapter 03
00:26:30.756 : :Chapter 04
00:34:19.599 : :Chapter 05
00:40:53.534 : :Chapter 06
00:47:31.474 : :Chapter 07
00:57:44.586 : :Chapter 08
01:06:11.301 : :Chapter 09
01:14:00.186 : :Chapter 10
01:24:38.824 : :Chapter 11
01:33:46.621 : :Chapter 12
01:41:14.151 : :Chapter 13




Screenshots

Freaks - Sie sehen aus wie wir (2019)

Freaks - Sie sehen aus wie wir (2019)

Freaks - Sie sehen aus wie wir (2019)