Tags
Language
Tags

From Hell (2001)

Posted By: Tavaz
1080p (FullHD) / BDRip IMDb
From Hell (2001)

From Hell (2001)
BDRip | MKV | 1920x816 | English | H264 @ 8737 kbps | DTS @ 1509 kbps | 2 h 2 min | 8.75 GiB
Genre: Horror, Mystery, Thriller

Frederick Abberline is an opium-huffing inspector from Scotland Yard who falls for one of Jack the Ripper's prostitute targets in this Hughes brothers adaption of a graphic novel that posits the Ripper's true identity.

From.Hell.2001.1080p.BluRay.x264-Japhson=effa97df51004b4a8d4d7e3d02b4d47b.part1.rar (4.6 GB)
From.Hell.2001.1080p.BluRay.x264-Japhson=effa97df51004b4a8d4d7e3d02b4d47b.part2.rar (4.2 GB)



General
Complete name : ./743541e9284bd88887992f064f16f12b.mkv
Format : Matroska
Format version : Version 1
File size : 8.75 GiB
Duration : 2 h 2 min
Overall bit rate : 10.2 Mb/s
Encoded date : UTC 2008-11-27 09:20:18
Writing application : mkvmerge v2.0.2 ('You're My Flame') built on Feb 21 2007 23:40:55
Writing library : libebml v0.7.7 + libmatroska v0.8.1

Video
ID : 1
Format : AVC
Format/Info : Advanced Video Codec
Format profile : High@L4.1
Format settings : CABAC / 5 Ref Frames
Format settings, CABAC : Yes
Format settings, RefFrames : 5 frames
Format settings, GOP : N=1
Codec ID : V_MPEG4/ISO/AVC
Duration : 2 h 2 min
Bit rate : 8 737 kb/s
Width : 1 920 pixels
Height : 816 pixels
Display aspect ratio : 2.35:1
Frame rate mode : Constant
Frame rate : 23.976 FPS
Color space : YUV
Chroma subsampling : 4:2:0
Bit depth : 8 bits
Scan type : Progressive
Bits/(Pixel*Frame) : 0.233
Stream size : 7.29 GiB (83%)
Writing library : x264 core 65 r1028M 83baa7f
Encoding settings : cabac=1 / ref=5 / deblock=1:-1:-1 / analyse=0x3:0x113 / me=umh / subme=7 / psy_rd=1.0:0.0 / mixed_ref=1 / me_range=16 / chroma_me=1 / trellis=2 / 8x8dct=1 / cqm=0 / deadzone=21,11 / chroma_qp_offset=-2 / threads=6 / nr=0 / decimate=1 / mbaff=0 / bframes=3 / b_pyramid=0 / b_adapt=2 / b_bias=0 / direct=3 / wpredb=1 / keyint=250 / keyint_min=25 / scenecut=40(pre) / rc=2pass / bitrate=8737 / ratetol=1.0 / qcomp=0.60 / qpmin=10 / qpmax=51 / qpstep=4 / cplxblur=20.0 / qblur=0.5 / vbv_maxrate=50000 / vbv_bufsize=50000 / ip_ratio=1.40 / pb_ratio=1.30 / aq=1:1.00
Language : English
Default : Yes
Forced : No

Audio
ID : 2
Format : DTS
Format/Info : Digital Theater Systems
Mode : 16
Format settings, Endianness : Big
Codec ID : A_DTS
Duration : 2 h 2 min
Bit rate mode : Constant
Bit rate : 1 509 kb/s
Channel(s) : 6 channels
Channel positions : Front: L C R, Side: L R, LFE
Sampling rate : 48.0 kHz
Frame rate : 93.750 FPS (512 SPF)
Bit depth : 24 bits
Compression mode : Lossy
Stream size : 1.29 GiB (15%)
Language : English
Default : Yes
Forced : No





From Hell (2001)


From Hell (2001)


From Hell (2001)


From Hell (2001)


From Hell (2001)