Tags
Language
Tags

From the Life of the Marionettes (1980)

Posted By: Tavaz
1080p (FullHD) / BDRip IMDb
From the Life of the Marionettes (1980)

From the Life of the Marionettes (1980)
BDRip | MKV | 1920x1080 | Deutsch | H264 @ 5760 kbps | AC-3 @ 96 kbps | 1 h 44 min | 4.27 GiB
Subtitles: English
Genre: Drama

Made during Bergman's tax-related exile in Germany, the film continues the story of Katarina and Peter Egermann, the feuding, childless, professional couple who appear in one episode of "Scenes From A Marriage." After Peter perpetrates a horrendous crime in its first scene, the rest of the film consists of a non-linear examination of his motivations, incorporating a police psychological investigation, scenes from the Egermanns' married life, and dream sequences.

ef4fef8a9d7875ca1ac3fd0b02305048.mkv (4.3 GB)



General
Unique ID : 248267660382366768678518860190064388316 (0xBAC69CB4E6C12F47E88A4F7A95B928DC)
Complete name : ./ef4fef8a9d7875ca1ac3fd0b02305048.mkv
Format : Matroska
Format version : Version 4 / Version 2
File size : 4.27 GiB
Duration : 1 h 44 min
Overall bit rate : 5 857 kb/s
Movie name : From.the.Life.of.the.Marionettes.1980.Criterion.1080p.BluRay.x264-nikt0
Encoded date : UTC 2020-05-05 21:40:07 / UTC 2020-05-04T20:07:38Z
Writing application : mkvmerge v38.0.0 ('The Silent Type') 64-bit
Writing library : libebml v1.3.9 + libmatroska v1.5.2 / Lavf57.7.2

Video
ID : 1
Format : AVC
Format/Info : Advanced Video Codec
Format profile : High@L4
Format settings : CABAC / 4 Ref Frames
Format settings, CABAC : Yes
Format settings, RefFrames : 4 frames
Codec ID : V_MPEG4/ISO/AVC
Duration : 1 h 44 min
Bit rate : 5 760 kb/s
Width : 1 920 pixels
Height : 1 080 pixels
Display aspect ratio : 16:9
Frame rate mode : Constant
Frame rate : 23.976 (24000/1001) FPS
Color space : YUV
Chroma subsampling : 4:2:0
Bit depth : 8 bits
Scan type : Progressive
Bits/(Pixel*Frame) : 0.116
Stream size : 4.12 GiB (96%)
Writing library : x264 core 155 r2901 7d0ff22
Encoding settings : cabac=1 / ref=4 / deblock=1:-3:-3 / analyse=0x3:0x133 / me=umh / subme=9 / psy=1 / psy_rd=1.10:0.25 / mixed_ref=1 / me_range=32 / chroma_me=1 / trellis=2 / 8x8dct=1 / cqm=0 / deadzone=6,6 / fast_pskip=1 / chroma_qp_offset=-4 / threads=34 / lookahead_threads=3 / sliced_threads=0 / nr=0 / decimate=1 / interlaced=0 / bluray_compat=0 / constrained_intra=0 / bframes=6 / b_pyramid=2 / b_adapt=2 / b_bias=0 / direct=3 / weightb=1 / open_gop=0 / weightp=2 / keyint=240 / keyint_min=24 / scenecut=40 / intra_refresh=0 / rc_lookahead=40 / rc=2pass / mbtree=1 / bitrate=5760 / ratetol=1.0 / qcomp=0.60 / qpmin=0 / qpmax=69 / qpstep=4 / cplxblur=20.0 / qblur=0.5 / vbv_maxrate=20000 / vbv_bufsize=25000 / nal_hrd=none / filler=0 / ip_ratio=1.40 / aq=1:1.00
Default : Yes
Forced : No
Color range : Limited
Color primaries : BT.709
Transfer characteristics : BT.709
Matrix coefficients : BT.709
Statistics Tags Issue : mkvmerge v38.0.0 ('The Silent Type') 64-bit 2020-05-05 21:40:07 / mkvmerge v38.0.0 ('The Silent Type') 64-bit 2020-05-05 21:40:07 / UTC 2020-05-04T20:07:38Z
FromStats_BitRate : 5759480
FromStats_Duration : 01:44:29.263000000
FromStats_FrameCount : 150312
FromStats_StreamSize : 4513462371

Audio
ID : 2
Format : AC-3
Format/Info : Audio Coding 3
Format settings, Endianness : Big
Codec ID : A_AC3
Duration : 1 h 44 min
Bit rate mode : Constant
Bit rate : 96.0 kb/s
Channel(s) : 1 channel
Channel positions : Front: C
Sampling rate : 48.0 kHz
Frame rate : 31.250 FPS (1536 SPF)
Bit depth : 16 bits
Compression mode : Lossy
Stream size : 71.7 MiB (2%)
Title : Mono
Language : German
Service kind : Complete Main
Default : Yes
Forced : No
Statistics Tags Issue : mkvmerge v38.0.0 ('The Silent Type') 64-bit 2020-05-05 21:40:07 / mkvmerge v38.0.0 ('The Silent Type') 64-bit 2020-05-05 21:40:07 / UTC 2020-05-04T20:07:38Z
FromStats_BitRate : 96000
FromStats_Duration : 01:44:29.280000000
FromStats_FrameCount : 195915
FromStats_StreamSize : 75231360

Text
ID : 3
Format : UTF-8
Codec ID : S_TEXT/UTF8
Codec ID/Info : UTF-8 Plain Text
Title : Forced
Language : English
Default : Yes
Forced : Yes
Statistics Tags Issue : mkvmerge v38.0.0 ('The Silent Type') 64-bit 2020-05-05 21:40:07 / mkvmerge v38.0.0 ('The Silent Type') 64-bit 2020-05-05 21:40:07 / UTC 2020-05-04T20:07:38Z
FromStats_BitRate : 67
FromStats_Duration : 01:42:00.406000000
FromStats_FrameCount : 1384
FromStats_StreamSize : 51895

Menu
00:00:00.000 : :The murder
00:04:20.385 : :"Twenty hours after"
00:07:14.476 : :Before the catastrophe
00:11:39.490 : :Peter's fantasy
00:18:05.918 : :Katarina's visit
00:25:39.830 : :Peter's mother
00:29:49.037 : :Sleepless night
00:38:17.128 : :Peter at work
00:42:01.394 : :Katarina at work
00:45:26.599 : :Katarina and Tim
00:49:27.798 : :"What is it, Tim?"
00:56:01.859 : :"Three days after"
01:02:47.430 : :Peter's letter
01:10:48.786 : :Peter attempts suicide
01:17:03.911 : :Love capital
01:19:47.074 : :"The true reality"
01:26:04.159 : :Ka
01:31:12.300 : :"All paths are barred"
01:37:37.935 : :A preliminary summary
01:41:17.738 : :Epilogue





From the Life of the Marionettes (1980)


From the Life of the Marionettes (1980)


From the Life of the Marionettes (1980)


From the Life of the Marionettes (1980)


From the Life of the Marionettes (1980)