Gangster No. 1 (2000)

Posted By: NaVi7
Gangster No. 1 (2000)

Gangster No. 1 (2000)
BDRip 1080p | MKV / AVC, 9562 Kbps | 1920x1080 | 1h 42mn | 8.27 GB
English: DTS, 1509 Kbps (6 ch) | German: AC3, 448 Kbps (6 ch)
Genre: Crime | Drama | Thriller

A middle-aged crime boss smugly reflects back from 1999, narrating the brutality which made him triumphant - and feared. As an unnamed young hood in Swinging 60's London, he aped his mod boss Freddie Mays, and seemed to do anything for him. But his narration exposes all-consuming envy: of Freddie's supremacy, and especially his tall bird. The baby shark develops his viciousness and backstabbing, scheming to be Gangster No. 1.

imdb - 1 win & 9 nominations.

General
Unique ID : 211390730400011184700876330428716133672 (0x9F085FAF04D92E41B6903A1E68EDAD28)
Complete name : Gangster.No.1.2000.German.AC3D.DL.1080p.BluRay.x264-msd.mkv
Format : Matroska
Format version : Version 2
File size : 8.27 GiB
Duration : 1h 42mn
Overall bit rate : 11.5 Mbps
Encoded date : UTC 2010-04-27 17:48:05
Writing application : mkvmerge v3.3.0 ('Language') gebaut am Mar 24 2010 14:59:24
Writing library : libebml v0.8.0 + libmatroska v0.9.0

Video
ID : 1
Format : AVC
Format/Info : Advanced Video Codec
Format profile : High@L4.1
Format settings, CABAC : Yes
Format settings, ReFrames : 4 frames
Codec ID : V_MPEG4/ISO/AVC
Duration : 1h 42mn
Bit rate : 9 562 Kbps
Width : 1 920 pixels
Height : 1 080 pixels
Display aspect ratio : 16:9
Frame rate mode : Constant
Frame rate : 23.976 fps
Color space : YUV
Chroma subsampling : 4:2:0
Bit depth : 8 bits
Scan type : Progressive
Bits/(Pixel*Frame) : 0.192
Stream size : 6.70 GiB (81%)
Writing library : x264 core 67 r1163 3f56e27
Encoding settings : cabac=1 / ref=4 / deblock=1:0:0 / analyse=0x3:0x133 / me=umh / subme=7 / psy_rd=1.0:0.0 / mixed_ref=1 / me_range=16 / chroma_me=1 / trellis=1 / 8x8dct=1 / cqm=0 / deadzone=21,11 / chroma_qp_offset=-2 / threads=12 / nr=0 / decimate=1 / mbaff=0 / bframes=3 / b_pyramid=1 / b_adapt=1 / b_bias=0 / direct=1 / wpredb=1 / keyint=250 / keyint_min=25 / scenecut=40 / rc=2pass / bitrate=9562 / ratetol=1.0 / qcomp=0.60 / qpmin=10 / qpmax=51 / qpstep=4 / cplxblur=20.0 / qblur=0.5 / ip_ratio=1.40 / pb_ratio=1.30 / aq=1:1.00
Default : Yes
Forced : No

Audio #1
ID : 2
Format : DTS
Format/Info : Digital Theater Systems
Mode : 16
Format settings, Endianness : Big
Codec ID : A_DTS
Duration : 1h 42mn
Bit rate mode : Constant
Bit rate : 1 509 Kbps
Channel(s) : 6 channels
Channel positions : Front: L C R, Side: L R, LFE
Sampling rate : 48.0 KHz
Bit depth : 24 bits
Compression mode : Lossy
Stream size : 1.08 GiB (13%)
Language : English
Default : No
Forced : No

Audio #2
ID : 3
Format : AC-3
Format/Info : Audio Coding 3
Mode extension : CM (complete main)
Format settings, Endianness : Big
Codec ID : A_AC3
Duration : 1h 42mn
Bit rate mode : Constant
Bit rate : 448 Kbps
Channel(s) : 6 channels
Channel positions : Front: L C R, Side: L R, LFE
Sampling rate : 48.0 KHz
Bit depth : 16 bits
Compression mode : Lossy
Delay relative to video : 750ms
Stream size : 329 MiB (4%)
Language : German
Default : Yes
Forced : Yes


screenshots:

Gangster No. 1 (2000)

Gangster No. 1 (2000)

Gangster No. 1 (2000)


Welcome to My Blog!

Subscribe to My Newsletter!

No more mirrors!

If you want to download it, but found out that links are dead, just leave a comment or PM me!
Download Links:
Uploaded | Rapidgator
Links to RapidGator and Uploaded are inside the html file. Download the file and open it in your browser.