National Geographic - George W. Bush: The 9-11 Interview (2011)

Posted By: ParRus
National Geographic - George W. Bush: The 9-11 Interview (2011)

National Geographic - George W. Bush: The 9-11 Interview (2011)
HDTV | English | MKV | 1280 x 720 | AVC ~2515 Kbps | 29.970 fps
AC-3 | 384 kbps | 48.0 KHz | 6 channels | 00:44:57 | 951 MB
Genre: Documentary

Until now, former president George W. Bush, has never discussed on camera what he was thinking and feeling, and what drove his real-time, life-or-death decisions in the first minutes, hours and days after the attacks of September 11, 2001.
General
Complete name : NG.George.W.Bush.The.911.Interview.mkv
Format : Matroska
Format version : Version 2
File size : 951 MiB
Duration : 44mn 57s
Overall bit rate : 2 958 Kbps
Encoded date : UTC 2013-02-18 13:01:53
Writing application : mkvmerge v5.8.0 ('No Sleep / Pillow') built on Sep 2 2012 15:37:04
Writing library : libebml v1.2.3 + libmatroska v1.3.0
Video #1
ID : 1
Format : AVC
Format/Info : Advanced Video Codec
Format profile : High@L4.1
Format settings, CABAC : Yes
Format settings, ReFrames : 8 frames
Muxing mode : Header stripping
Codec ID : V_MPEG4/ISO/AVC
Duration : 44mn 57s
Bit rate : 2 515 Kbps
Width : 1 280 pixels
Height : 720 pixels
Display aspect ratio : 16:9
Frame rate : 29.970 fps
Color space : YUV
Chroma subsampling : 4:2:0
Bit depth : 8 bits
Scan type : Progressive
Bits/(Pixel*Frame) : 0.091
Stream size : 809 MiB (85%)
Writing library : x264 core 129 r2245 bc13772
Encoding settings : cabac=1 / ref=8 / deblock=1:-1:-1 / analyse=0x3:0x113 / me=esa / subme=8 / psy=1 / psy_rd=1.00:0.00 / mixed_ref=0 / me_range=30 / chroma_me=1 / trellis=2 / 8x8dct=1 / cqm=0 / deadzone=21,11 / fast_pskip=0 / chroma_qp_offset=-2 / threads=6 / lookahead_threads=1 / sliced_threads=0 / nr=0 / decimate=1 / interlaced=0 / bluray_compat=0 / constrained_intra=0 / bframes=5 / b_pyramid=0 / b_adapt=2 / b_bias=0 / direct=1 / weightb=1 / open_gop=0 / weightp=2 / keyint=300 / keyint_min=29 / scenecut=40 / intra_refresh=0 / rc_lookahead=40 / rc=crf / mbtree=1 / crf=20.0 / qcomp=0.60 / qpmin=10 / qpmax=51 / qpstep=4 / ip_ratio=1.40 / aq=1:1.05
Language : English
Audio #2
ID : 2
Format : AC-3
Format/Info : Audio Coding 3
Mode extension : CM (complete main)
Muxing mode : Header stripping
Codec ID : A_AC3
Duration : 44mn 57s
Bit rate mode : Constant
Bit rate : 384 Kbps
Channel(s) : 6 channels
Channel positions : Front: L C R, Side: L R, LFE
Sampling rate : 48.0 KHz
Bit depth : 16 bits
Compression mode : Lossy
Stream size : 124 MiB (13%)

ScreenShots

National Geographic - George W. Bush: The 9-11 Interview (2011)

National Geographic - George W. Bush: The 9-11 Interview (2011)

National Geographic - George W. Bush: The 9-11 Interview (2011)

National Geographic - George W. Bush: The 9-11 Interview (2011)

For more, Visit my AH-blog

no mirrors please, Follow The Rules