Ghoul - Die Legende vom Leichenesser (2015)

Posted By: Barfin
1080p (FullHD) / BDRip IMDb
Ghoul - Die Legende vom Leichenesser  (2015)

Ghoul - Die Legende vom Leichenesser (2015)
BDRip 1080p | MKV / AVC@8917 kb/s | 1920x1080 | 1h 25mn
Deutsch (dubbed): DTS, 768 kb/s (6 ch) | Subtitles: Deutsch | 5.82 GB
Genre: Horror | Thriller

Eine wahre Geschichte, die Legende der Kannibalen. Eine amerikanische Filmcrew will die Erzählungen um den bekanntesten von ihnen, Andrej Chikatilo, dokumentieren. Tief im Wald finden sie ein verlassenes Haus, in dem sein Geist noch immer präsent sein soll. Kurz nach ihrer Ankunft werden sie von unerklärlichen Phänomenen heimgesucht. In den Katakomben unter dem Haus finden sie das blanke Grauen.


General
Unique ID : 204009099449230002953999291314969332970 (0x997AB92DD6659D5C89BDAE803E654CEA)
Complete name : F:\Ghoul.Die.Legende.vom.Leichenesser.2015.GERMAN.1080p.BluRay.x264.mkv
Format : Matroska
Format version : Version 4
File size : 5.82 GiB
Duration : 1 h 25 min
Overall bit rate : 9 692 kb/s
Encoded date : UTC 2019-11-08 16:44:51
Writing application : mkvmerge v7.8.0 ('River Man') 32bit built on Apr 3 2015 12:11:22
Writing library : libebml v1.3.1 + libmatroska v1.4.2

Video
ID : 1
Format : AVC
Format/Info : Advanced Video Codec
Format profile : High@L4.1
Format settings : CABAC / 4 Ref Frames
Format settings, CABAC : Yes
Format settings, ReFrames : 4 frames
Codec ID : V_MPEG4/ISO/AVC
Duration : 1 h 25 min
Bit rate : 8 917 kb/s
Width : 1 920 pixels
Height : 1 080 pixels
Display aspect ratio : 16:9
Frame rate mode : Constant
Frame rate : 24.000 FPS
Color space : YUV
Chroma subsampling : 4:2:0
Bit depth : 8 bits
Scan type : Progressive
Bits/(Pixel*Frame) : 0.179
Stream size : 5.35 GiB (92%)
Writing library : x264 core 157 r2969 d4099dd
Encoding settings : cabac=1 / ref=4 / deblock=1:-3:-3 / analyse=0x3:0x133 / me=umh / subme=8 / psy=1 / psy_rd=1.00:0.15 / mixed_ref=1 / me_range=16 / chroma_me=1 / trellis=2 / 8x8dct=1 / cqm=0 / deadzone=21,11 / fast_pskip=0 / chroma_qp_offset=-3 / threads=16 / lookahead_threads=2 / sliced_threads=0 / nr=0 / decimate=1 / interlaced=0 / bluray_compat=0 / constrained_intra=0 / bframes=3 / b_pyramid=2 / b_adapt=1 / b_bias=0 / direct=3 / weightb=1 / open_gop=0 / weightp=2 / keyint=250 / keyint_min=24 / scenecut=40 / intra_refresh=0 / rc_lookahead=40 / rc=crf / mbtree=1 / crf=20.0 / qcomp=0.60 / qpmin=10 / qpmax=69 / qpstep=4 / ip_ratio=1.40 / aq=1:1.00
Language : English
Default : Yes
Forced : No

Audio
ID : 2
Format : DTS
Format/Info : Digital Theater Systems
Codec ID : A_DTS
Duration : 1 h 25 min
Bit rate mode : Constant
Bit rate : 768 kb/s
Channel(s) : 6 channels
Channel layout : C L R Ls Rs LFE
Sampling rate : 48.0 kHz
Frame rate : 93.750 FPS (512 SPF)
Bit depth : 24 bits
Compression mode : Lossy
Stream size : 472 MiB (8%)
Title : dts
Language : German
Default : Yes
Forced : No

Text #1
ID : 3
Format : VobSub
Muxing mode : zlib
Codec ID : S_VOBSUB
Codec ID/Info : Picture based subtitle format used on DVDs
Duration : 1 h 19 min
Bit rate : 5 283 b/s
Count of elements : 1063
Stream size : 3.02 MiB (0%)
Language : German
Default : No
Forced : No

Text #2
ID : 4
Format : UTF-8
Codec ID : S_TEXT/UTF8
Codec ID/Info : UTF-8 Plain Text
Duration : 1 h 19 min
Bit rate : 7 b/s
Count of elements : 118
Stream size : 4.49 KiB (0%)
Title : forced
Language : German
Default : Yes
Forced : No

Menu
00:00:00.000 : de:00:00:00.000
00:03:58.792 : de:00:03:58.792
00:11:27.542 : de:00:11:27.542
00:20:08.125 : de:00:20:08.125
00:26:00.750 : de:00:26:00.750
00:35:19.458 : de:00:35:19.458
00:39:07.917 : de:00:39:07.917
00:43:08.708 : de:00:43:08.708
00:50:54.042 : de:00:50:54.042
01:00:19.875 : de:01:00:19.875
01:10:36.417 : de:01:10:36.417
01:21:04.958 : de:01:21:04.958




Screenshots

Ghoul - Die Legende vom 			  		  		  		 	 	  	 			   		   	  		 			  		   	  	 			   		 	    		 	 	  	 			   			  	  		   				 Leichenesser  (2015)

Ghoul - Die Legende vom Leichenesser  (2015)

Ghoul - Die Legende vom Leichenesser  (2015)