Ginger & Rosa (2012)

Posted By: NaVi7
Ginger & Rosa (2012)

Ginger & Rosa (2012)
DVDRip | AVI / XVID, 2043 Kbps | 640x256 | 1h 26mn | 1.51 GB | English: AC3, 448 Kbps (6 ch)
DVD5 | PAL 16:9 (720x576) VBR | 1h 26mn | 4.35 GB | English: Dolby AC3, 6 ch / Dolby AC3, 2 ch
Genre: Drama

London, 1962. Two teenage girls - Ginger and Rosa – are inseparable; they play truant together, discuss religion, politics and hairstyles, and dream of lives bigger than their mothers' frustrated domesticity. But, as the Cold War meets the sexual revolution, and the threat of nuclear holocaust escalates, the lifelong friendship of the two girls is shattered - by the clash of desire and the determination to survive.

imdb - 3 wins & 5 nominations.

General
Complete name : excess-xvid-gr.avi
Format : AVI
Format/Info : Audio Video Interleave
File size : 1.51 GiB
Duration : 1h 26mn
Overall bit rate : 2 500 Kbps
Writing application : VirtualDubMod 1.5.10.2 (build 2540/release)
Writing library : VirtualDubMod build 2540/release

Video
ID : 0
Format : MPEG-4 Visual
Format profile : Advanced Simple@L5
Format settings, BVOP : 2
Format settings, QPel : No
Format settings, GMC : No warppoints
Format settings, Matrix : Default (H.263)
Muxing mode : Packed bitstream
Codec ID : XVID
Codec ID/Hint : XviD
Duration : 1h 26mn
Bit rate : 2 043 Kbps
Width : 640 pixels
Height : 256 pixels
Display aspect ratio : 2.500
Frame rate : 25.000 fps
Color space : YUV
Chroma subsampling : 4:2:0
Bit depth : 8 bits
Scan type : Progressive
Compression mode : Lossy
Bits/(Pixel*Frame) : 0.499
Stream size : 1.23 GiB (82%)
Writing library : XviD 1.2.1 (UTC 2008-12-04)

Audio
ID : 1
Format : AC-3
Format/Info : Audio Coding 3
Mode extension : CM (complete main)
Format settings, Endianness : Big
Codec ID : 2000
Duration : 1h 26mn
Bit rate mode : Constant
Bit rate : 448 Kbps
Channel(s) : 6 channels
Channel positions : Front: L C R, Side: L R, LFE
Sampling rate : 48.0 KHz
Bit depth : 16 bits
Compression mode : Lossy
Stream size : 276 MiB (18%)
Alignment : Split accross interleaves
Interleave, duration : 40 ms (1.00 video frame)
Interleave, preload duration : 500 ms

Title: GINGER_AND_ROSA
Size: 4.35 Gb ( 4,558,110.00 KBytes ) - DVD-5
Enabled regions: 1, 2, 3, 4, 5, 6, 7, 8

VTS_02 :
Play Length: 01:26:10+{01:26:10}+{01:26:10}
Video: PAL 16:9 (720x576) VBR, Auto Letterboxed
Audio:
English (Dolby AC3, 6 ch)
English (Dolby AC3, 2 ch)
English (Dolby AC3, 2 ch)


screenshots - DVDRip:

Ginger & Rosa (2012)

Ginger & Rosa (2012)

Ginger & Rosa (2012)


screenshots - DVD5:

Ginger & Rosa (2012)

Ginger & Rosa (2012)

Ginger & Rosa (2012)


Welcome to My Blog!

Subscribe to My Newsletter!

No more mirrors!

If you want to download it, but found out that links are dead, just leave a comment or PM me!
Download Links:
Uploaded | Rapidgator - DVDRip
Uploaded | Rapidgator - DVD5
Links to RapidGator and Uploaded are inside the html file. Download the file and open it in your browser.