God Loves the Fighter (2013)

Posted By: JohnSmith
God Loves the Fighter (2013)

God Loves the Fighter (2013)
BDRip | MKV / AVC@933 kb/s | 720x324 | 1h 36mn | 735 MB | English: AAC, 133 kb/s (2 ch)
BRRip | AVI / XviD@1596 kb/s | 720x324 | 1h 36mn | 1.38 GB | English: AC3, 448 kb/s (6 ch)
BDRip 720p | MKV / AVC@5348 kb/s | 1280x576 | 1h 36mn | 4.36 GB | English: DTS, 1152 kb/s (6 ch)
BDRip 1080p | MKV / AVC@8607 kb/s | 1920x864 | 1h 36mn | 6.55 GB | English : DTS, 1152 kb/s (6 ch)
Genre: Crime | Drama

TRINIDAD - King Curtis, a vagrant on the streets of Port of Spain, is constantly ignored by passersby. He speaks and if he has to - sometimes shouts the truth about the stories behind the newspaper headlines. As the conductor of our story, King Curtis introduces us to a young man named Charlie… Charlie, a resident east of the lighthouse, is trying his best to stay on the right path. However, with no job in sight, he is finding it hard to say no to other "opportunities". A chance of redemption presents itself when Dinah, a professional streetwalker, crosses his path in need of help. As the story unfolds, King Curtis reveals the ripple effect created by a person's decision making; leading to moments of triumph and moments of tragedy.




General
Unique ID : 176763955239138551152828374309666283089 (0x84FB7FDBD8A6979E819DE5396477DE51)
Complete name : C:\Users\Administrator\Desktop\God.Loves.the.Fighter.2013.BDRip.x264-NOSCREENS.mkv
Format : Matroska
Format version : Version 4 / Version 2
File size : 735 MiB
Duration : 1h 36mn
Overall bit rate : 1 069 Kbps
Encoded date : UTC 2015-10-30 12:11:43
Writing application : mkvmerge v8.3.0 ('Over the Horizon') 64bit
Writing library : libebml v1.3.1 + libmatroska v1.4.2
DURATION : 01:36:05.547000000
NUMBER_OF_FRAMES : 270260
NUMBER_OF_BYTES : 96228435
_STATISTICS_WRITING_APP : mkvmerge v8.3.0 ('Over the Horizon') 64bit
_STATISTICS_WRITING_DATE_UT : 2015-10-30 12:11:43
_STATISTICS_TAGS : BPS DURATION NUMBER_OF_FRAMES NUMBER_OF_BYTES

Video
ID : 1
Format : AVC
Format/Info : Advanced Video Codec
Format profile : High@L3.1
Format settings, CABAC : Yes
Format settings, ReFrames : 5 frames
Codec ID : V_MPEG4/ISO/AVC
Duration : 1h 36mn
Width : 720 pixels
Height : 324 pixels
Display aspect ratio : 2.222
Frame rate mode : Constant
Frame rate : 23.976 fps
Color space : YUV
Chroma subsampling : 4:2:0
Bit depth : 8 bits
Scan type : Progressive
Writing library : x264 core 148 r2638 7599210
Encoding settings : cabac=1 / ref=5 / deblock=1:-2:-2 / analyse=0x3:0x113 / me=umh / subme=8 / psy=1 / psy_rd=0.80:0.00 / mixed_ref=1 / me_range=16 / chroma_me=1 / trellis=1 / 8x8dct=1 / cqm=0 / deadzone=21,11 / fast_pskip=1 / chroma_qp_offset=-2 / threads=10 / lookahead_threads=1 / sliced_threads=0 / nr=0 / decimate=1 / interlaced=0 / bluray_compat=0 / constrained_intra=0 / bframes=3 / b_pyramid=2 / b_adapt=2 / b_bias=0 / direct=3 / weightb=1 / open_gop=0 / weightp=2 / keyint=250 / keyint_min=23 / scenecut=40 / intra_refresh=0 / rc_lookahead=50 / rc=crf / mbtree=1 / crf=19.0 / qcomp=0.60 / qpmin=0 / qpmax=69 / qpstep=4 / ip_ratio=1.40 / aq=1:1.00
Default : Yes
Forced : No
Color range : Limited
Matrix coefficients : BT.709

Audio
ID : 2
Format : AAC
Format/Info : Advanced Audio Codec
Format profile : LC
Codec ID : A_AAC
Duration : 1h 36mn
Channel(s) : 2 channels
Channel positions : Front: L R
Sampling rate : 48.0 KHz
Compression mode : Lossy
Delay relative to video : 9ms
Default : Yes
Forced : No

Menu #1
00:00:00.000 : en:00:00:00.000
00:04:05.454 : en:00:04:05.454
00:09:39.746 : en:00:09:39.746
00:16:52.511 : en:00:16:52.511
00:28:20.616 : en:00:28:20.616
00:40:54.577 : en:00:40:54.577
00:50:31.779 : en:00:50:31.779
01:01:28.143 : en:01:01:28.143
01:12:31.889 : en:01:12:31.889
01:20:59.480 : en:01:20:59.480

Menu #2
00:00:00.054 : en:00:00:00.054



General
Complete name : C:\Users\Administrator\Desktop\God.Loves.the.Fighter.2013.BRRip.XviD.AC3-RARBG.avi
Format : AVI
Format/Info : Audio Video Interleave
File size : 1.38 GiB
Duration : 1h 36mn
Overall bit rate : 2 054 Kbps
Movie name : RARBG.COM - God.Loves.the.Fighter.2013.BRRip.XviD.AC3-RARBG
Writing application : Lavf56.40.101
Writing library : VirtualDub build 35491/release
Comment : RARBG.COM - God.Loves.the.Fighter.2013.BRRip.XviD.AC3-RARBG

Video
ID : 0
Format : MPEG-4 Visual
Format profile : Simple@L5
Format settings, BVOP : No
Format settings, QPel : No
Format settings, GMC : No warppoints
Format settings, Matrix : Default (H.263)
Codec ID : XVID
Codec ID/Hint : XviD
Duration : 1h 36mn
Bit rate : 1 596 Kbps
Width : 720 pixels
Height : 324 pixels
Display aspect ratio : 2.222
Frame rate : 23.976 fps
Color space : YUV
Chroma subsampling : 4:2:0
Bit depth : 8 bits
Scan type : Progressive
Compression mode : Lossy
Bits/(Pixel*Frame) : 0.285
Stream size : 1.07 GiB (78%)
Writing library : Lavc56.60.100

Audio
ID : 1
Format : AC-3
Format/Info : Audio Coding 3
Mode extension : CM (complete main)
Format settings, Endianness : Big
Codec ID : 2000
Duration : 1h 36mn
Bit rate mode : Constant
Bit rate : 448 Kbps
Channel(s) : 6 channels
Channel positions : Front: L C R, Side: L R, LFE
Sampling rate : 48.0 KHz
Compression mode : Lossy
Stream size : 308 MiB (22%)
Alignment : Aligned on interleaves
Interleave, duration : 42 ms (1.00 video frame)
Interleave, preload duratio : 512 ms



General
Unique ID : 246654342248213220922334850773761782092 (0xB98FE5FB3DED2537972CFAAA937DF14C)
Complete name : C:\Users\Administrator\Desktop\God.Loves.the.Fighter.2013.720p.BluRay.x264-NOSCREENS.mkv
Format : Matroska
Format version : Version 4 / Version 2
File size : 4.36 GiB
Duration : 1h 36mn
Overall bit rate : 6 502 Kbps
Encoded date : UTC 2015-10-30 11:58:20
Writing application : mkvmerge v8.3.0 ('Over the Horizon') 64bit
Writing library : libebml v1.3.1 + libmatroska v1.4.2
DURATION : 01:36:05.536000000
NUMBER_OF_FRAMES : 540519
NUMBER_OF_BYTES : 830237184
_STATISTICS_WRITING_APP : mkvmerge v8.3.0 ('Over the Horizon') 64bit
_STATISTICS_WRITING_DATE_UT : 2015-10-30 11:58:20
_STATISTICS_TAGS : BPS DURATION NUMBER_OF_FRAMES NUMBER_OF_BYTES

Video
ID : 1
Format : AVC
Format/Info : Advanced Video Codec
Format profile : High@L4.1
Format settings, CABAC : Yes
Format settings, ReFrames : 5 frames
Codec ID : V_MPEG4/ISO/AVC
Duration : 1h 36mn
Bit rate : 5 348 Kbps
Width : 1 280 pixels
Height : 576 pixels
Display aspect ratio : 2.222
Frame rate mode : Constant
Frame rate : 23.976 fps
Color space : YUV
Chroma subsampling : 4:2:0
Bit depth : 8 bits
Scan type : Progressive
Bits/(Pixel*Frame) : 0.303
Stream size : 3.50 GiB (80%)
Writing library : x264 core 148 r2638 7599210
Encoding settings : cabac=1 / ref=5 / deblock=1:0:0 / analyse=0x3:0x113 / me=umh / subme=8 / psy=1 / psy_rd=1.00:0.00 / mixed_ref=1 / me_range=16 / chroma_me=1 / trellis=1 / 8x8dct=1 / cqm=0 / deadzone=21,11 / fast_pskip=0 / chroma_qp_offset=-2 / threads=18 / lookahead_threads=3 / sliced_threads=0 / nr=0 / decimate=1 / interlaced=0 / bluray_compat=0 / constrained_intra=0 / bframes=3 / b_pyramid=2 / b_adapt=2 / b_bias=0 / direct=3 / weightb=1 / open_gop=0 / weightp=2 / keyint=250 / keyint_min=23 / scenecut=40 / intra_refresh=0 / rc_lookahead=50 / rc=2pass / mbtree=1 / bitrate=5348 / ratetol=1.0 / qcomp=0.60 / qpmin=0 / qpmax=69 / qpstep=4 / cplxblur=20.0 / qblur=0.5 / ip_ratio=1.40 / aq=1:1.00
Language : English
Default : Yes
Forced : No
DURATION : 01:36:05.510000000
NUMBER_OF_FRAMES : 138234
NUMBER_OF_BYTES : 3853791359
_STATISTICS_WRITING_APP : mkvmerge v8.3.0 ('Over the Horizon') 64bit
_STATISTICS_WRITING_DATE_UT : 2015-10-30 11:58:20
_STATISTICS_TAGS : BPS DURATION NUMBER_OF_FRAMES NUMBER_OF_BYTES

Audio
ID : 2
Format : DTS
Format/Info : Digital Theater Systems
Mode : 16
Format settings, Endianness : Big
Codec ID : A_DTS
Duration : 1h 36mn
Bit rate mode : Constant
Bit rate : 1 152 Kbps
Channel(s) : 6 channels
Channel positions : Front: L C R, Side: L R, LFE
Sampling rate : 48.0 KHz
Bit depth : 24 bits
Compression mode : Lossy
Stream size : 792 MiB (18%)
Language : English
Default : Yes
Forced : No

Menu
00:00:00.000 : en:00:00:00.000
00:04:05.454 : en:00:04:05.454
00:09:39.746 : en:00:09:39.746
00:16:52.511 : en:00:16:52.511
00:28:20.616 : en:00:28:20.616
00:40:54.577 : en:00:40:54.577
00:50:31.779 : en:00:50:31.779
01:01:28.143 : en:01:01:28.143
01:12:31.889 : en:01:12:31.889
01:20:59.480 : en:01:20:59.480



General
Unique ID : 232098715575871014169767591870224526882 (0xAE9C962DEAC3EE52B613E90981F9EE22)
Complete name : D:\Downloads\God.Loves.the.Fighter.2013.1080p.BluRay.x264-MELiTE[rarbg]\God.Loves.the.Fighter.2013.1080p.BluRay.x264-MELiTE.mkv
Format : Matroska
Format version : Version 4 / Version 2
File size : 6.55 GiB
Duration : 1h 36mn
Overall bit rate : 9 760 Kbps
Encoded date : UTC 2015-10-30 11:58:44
Writing application : mkvmerge v8.3.0 ('Over the Horizon') 64bit
Writing library : libebml v1.3.1 + libmatroska v1.4.2
DURATION : 01:36:05.536000000
NUMBER_OF_FRAMES : 540519
NUMBER_OF_BYTES : 830237184
_STATISTICS_WRITING_APP : mkvmerge v8.3.0 ('Over the Horizon') 64bit
_STATISTICS_WRITING_DATE_UT : 2015-10-30 11:58:44
_STATISTICS_TAGS : BPS DURATION NUMBER_OF_FRAMES NUMBER_OF_BYTES

Video
ID : 1
Format : AVC
Format/Info : Advanced Video Codec
Format profile : High@L4.1
Format settings, CABAC : Yes
Format settings, ReFrames : 5 frames
Codec ID : V_MPEG4/ISO/AVC
Duration : 1h 36mn
Bit rate : 8 607 Kbps
Width : 1 920 pixels
Height : 864 pixels
Display aspect ratio : 2.222
Frame rate mode : Constant
Frame rate : 23.976 fps
Color space : YUV
Chroma subsampling : 4:2:0
Bit depth : 8 bits
Scan type : Progressive
Bits/(Pixel*Frame) : 0.216
Stream size : 5.65 GiB (86%)
Writing library : x264 core 148 r2638 7599210
Encoding settings : cabac=1 / ref=5 / deblock=1:0:0 / analyse=0x3:0x113 / me=umh / subme=8 / psy=1 / psy_rd=1.00:0.00 / mixed_ref=1 / me_range=16 / chroma_me=1 / trellis=1 / 8x8dct=1 / cqm=0 / deadzone=21,11 / fast_pskip=0 / chroma_qp_offset=-2 / threads=18 / lookahead_threads=3 / sliced_threads=0 / nr=0 / decimate=1 / interlaced=0 / bluray_compat=0 / constrained_intra=0 / bframes=3 / b_pyramid=2 / b_adapt=2 / b_bias=0 / direct=3 / weightb=1 / open_gop=0 / weightp=2 / keyint=250 / keyint_min=23 / scenecut=40 / intra_refresh=0 / rc_lookahead=50 / rc=2pass / mbtree=1 / bitrate=8607 / ratetol=1.0 / qcomp=0.60 / qpmin=0 / qpmax=69 / qpstep=4 / cplxblur=20.0 / qblur=0.5 / ip_ratio=1.40 / aq=1:1.00
Default : Yes
Forced : No

Audio
ID : 2
Format : DTS
Format/Info : Digital Theater Systems
Mode : 16
Format settings, Endianness : Big
Codec ID : A_DTS
Duration : 1h 36mn
Bit rate mode : Constant
Bit rate : 1 152 Kbps
Channel(s) : 6 channels
Channel positions : Front: L C R, Side: L R, LFE
Sampling rate : 48.0 KHz
Bit depth : 24 bits
Compression mode : Lossy
Stream size : 792 MiB (12%)
Language : English
Default : Yes
Forced : No

Menu
00:00:00.000 : en:00:00:00.000
00:04:05.454 : en:00:04:05.454
00:09:39.746 : en:00:09:39.746
00:16:52.511 : en:00:16:52.511
00:28:20.616 : en:00:28:20.616
00:40:54.577 : en:00:40:54.577
00:50:31.779 : en:00:50:31.779
01:01:28.143 : en:01:01:28.143
01:12:31.889 : en:01:12:31.889
01:20:59.480 : en:01:20:59.480


Screenshots BDRip

God Loves the Fighter (2013)

God Loves the Fighter (2013)

God Loves the Fighter (2013)


Screenshots BRRip

God Loves the Fighter (2013)

God Loves the Fighter (2013)

God Loves the Fighter (2013)


Screenshots BDRip 720p

God Loves the Fighter (2013)

God Loves the Fighter (2013)

God Loves the Fighter (2013)


Screenshots BDRip 1080p

God Loves the Fighter (2013)

God Loves the Fighter (2013)

God Loves the Fighter (2013)

BRRip
http://www.nitroflare.com/view/86332D4EECC5AAC/God.Loves.the.Fighter.2013.BRRip.XviD.AC3-RARBG.part1.rar
http://www.nitroflare.com/view/57A6979AC9B42E9/God.Loves.the.Fighter.2013.BRRip.XviD.AC3-RARBG.part2.rar
http://www.nitroflare.com/view/0C61AB2EEBE2A58/God.Loves.the.Fighter.2013.BRRip.XviD.AC3-RARBG.part3.rar
BDRip 720p
http://www.nitroflare.com/view/0AC4CC4A89085B7/God.Loves.the.Fighter.2013.720p.BluRay.x264-NOSCREENS.part1.rar
http://www.nitroflare.com/view/2C89248BC6F945B/God.Loves.the.Fighter.2013.720p.BluRay.x264-NOSCREENS.part2.rar
http://www.nitroflare.com/view/F74F28C0BDF5157/God.Loves.the.Fighter.2013.720p.BluRay.x264-NOSCREENS.part3.rar
http://www.nitroflare.com/view/AEE4BE50C0F2DA9/God.Loves.the.Fighter.2013.720p.BluRay.x264-NOSCREENS.part4.rar
http://www.nitroflare.com/view/DFFB164B604C85B/God.Loves.the.Fighter.2013.720p.BluRay.x264-NOSCREENS.part5.rar
BDRip 1080p
http://www.nitroflare.com/view/F6DC7D8BC12E883/God.Loves.the.Fighter.2013.1080p.BluRay.x264-MELiTE.part1.rar
http://www.nitroflare.com/view/D4585F64683F44A/God.Loves.the.Fighter.2013.1080p.BluRay.x264-MELiTE.part2.rar
http://www.nitroflare.com/view/8383DDB70F2263A/God.Loves.the.Fighter.2013.1080p.BluRay.x264-MELiTE.part3.rar
http://www.nitroflare.com/view/04301EDF9134A36/God.Loves.the.Fighter.2013.1080p.BluRay.x264-MELiTE.part4.rar
http://www.nitroflare.com/view/B27E32CF3CC71F5/God.Loves.the.Fighter.2013.1080p.BluRay.x264-MELiTE.part5.rar
http://www.nitroflare.com/view/0514FEB2E83E143/God.Loves.the.Fighter.2013.1080p.BluRay.x264-MELiTE.part6.rar
http://www.nitroflare.com/view/1F0328E9714D885/God.Loves.the.Fighter.2013.1080p.BluRay.x264-MELiTE.part7.rar