Tags
Language
Tags

God's Not Dead: A Light in Darkness (2018)

Posted By: Tavaz
1080p (FullHD) / BDRip IMDb
God's Not Dead: A Light in Darkness (2018)

God's Not Dead: A Light in Darkness (2018)
BDRip | MKV | 1920x800 | English | H264 @ 8786 kbps | DTS @ 1509 kbps | 1 h 46 min | 7.65 GiB
Genre: Drama

Pastor Dave responds to the unimaginable tragedy of having his church, located on the grounds of the local university, burned down.

5f2969c7e7bd4c37a096bd32dae277d1.mkv (7.7 GB)



General
Unique ID : 102632774714444525283927015766836627998 (0x4D365A7910B71CC83C134CA11127CA1E)
Complete name : ./5f2969c7e7bd4c37a096bd32dae277d1.mkv
Format : Matroska
Format version : Version 4 / Version 2
File size : 7.65 GiB
Duration : 1 h 46 min
Overall bit rate : 10.3 Mb/s
Encoded date : UTC 2018-08-21 09:50:26
Writing application : mkvmerge v25.0.0 ('Prog Noir') 64-bit
Writing library : libebml v1.3.6 + libmatroska v1.4.9

Video
ID : 1
Format : AVC
Format/Info : Advanced Video Codec
Format profile : High@L4.1
Format settings : CABAC / 5 Ref Frames
Format settings, CABAC : Yes
Format settings, RefFrames : 5 frames
Codec ID : V_MPEG4/ISO/AVC
Duration : 1 h 46 min
Bit rate : 8 786 kb/s
Width : 1 920 pixels
Height : 800 pixels
Display aspect ratio : 2.40:1
Frame rate mode : Constant
Frame rate : 23.976 (24000/1001) FPS
Color space : YUV
Chroma subsampling : 4:2:0
Bit depth : 8 bits
Scan type : Progressive
Bits/(Pixel*Frame) : 0.239
Stream size : 6.53 GiB (85%)
Writing library : x264 core 155 r2901 7d0ff22
Encoding settings : cabac=1 / ref=5 / deblock=1:-3:-3 / analyse=0x3:0x133 / me=umh / subme=8 / psy=1 / psy_rd=1.00:0.00 / mixed_ref=1 / me_range=16 / chroma_me=1 / trellis=1 / 8x8dct=1 / cqm=0 / deadzone=21,11 / fast_pskip=0 / chroma_qp_offset=-2 / threads=24 / lookahead_threads=4 / sliced_threads=0 / nr=0 / decimate=1 / interlaced=0 / bluray_compat=0 / constrained_intra=0 / bframes=3 / b_pyramid=2 / b_adapt=1 / b_bias=0 / direct=3 / weightb=1 / open_gop=0 / weightp=2 / keyint=250 / keyint_min=23 / scenecut=40 / intra_refresh=0 / rc_lookahead=50 / rc=2pass / mbtree=1 / bitrate=8786 / ratetol=1.0 / qcomp=0.60 / qpmin=0 / qpmax=69 / qpstep=4 / cplxblur=20.0 / qblur=0.5 / vbv_maxrate=62500 / vbv_bufsize=78125 / nal_hrd=none / filler=0 / ip_ratio=1.40 / aq=1:1.00
Default : Yes
Forced : No

Audio
ID : 2
Format : DTS
Format/Info : Digital Theater Systems
Mode : 16
Format settings, Endianness : Big
Codec ID : A_DTS
Duration : 1 h 46 min
Bit rate mode : Constant
Bit rate : 1 509 kb/s
Channel(s) : 6 channels
Channel positions : Front: L C R, Side: L R, LFE
Sampling rate : 48.0 kHz
Frame rate : 93.750 FPS (512 SPF)
Bit depth : 24 bits
Compression mode : Lossy
Stream size : 1.12 GiB (15%)
Language : English
Default : Yes
Forced : No

Menu
00:00:00.000 : en:00:00:00.000
00:05:28.453 : en:00:05:28.453
00:10:56.739 : en:00:10:56.739
00:15:23.297 : en:00:15:23.297
00:20:53.127 : en:00:20:53.127
00:25:59.725 : en:00:25:59.725
00:31:23.131 : en:00:31:23.131
00:36:24.766 : en:00:36:24.766
00:42:10.862 : en:00:42:10.862
00:46:07.264 : en:00:46:07.264
00:51:20.995 : en:00:51:20.995
00:57:00.834 : en:00:57:00.834
01:01:52.751 : en:01:01:52.751
01:07:40.848 : en:01:07:40.848
01:12:32.640 : en:01:12:32.640
01:18:41.508 : en:01:18:41.508
01:24:21.723 : en:01:24:21.723
01:29:52.095 : en:01:29:52.095
01:36:44.173 : en:01:36:44.173
01:41:20.157 : en:01:41:20.157





God's Not Dead: A Light in Darkness (2018)


God's Not Dead: A Light in Darkness 			  		  		  	 			   		  	   		  		  		  		  	 			   		  	   		 	    		  	   	 			   		  	   		      		 	  			 (2018)


God's Not Dead: A Light in Darkness (2018)


God's Not Dead: A Light in Darkness (2018)


God's Not Dead: A Light in Darkness (2018)