God's Not Dead: A Light in Darkness (2018)

Posted By: Without
1080p (FullHD) / WEB-DL IMDb
God's Not Dead: A Light in Darkness (2018)

God's Not Dead: A Light in Darkness (2018)
HDRip | AVI | 720x304 | XviD@1333 kb/s | English AC3@384 kb/s | 6 channels | 1 h 44 min | 1.25 GB
WEB-DL 720p | MKV | 1280x530 | AVC@3983 kb/s | English AC3@384 kb/s | 6 channels | 1 h 44 min | 3.25 GB
WEB-DL 1080p | MKV | 1908x792 | AVC@4567 kb/s | English AC3@384 kb/s | 6 channels | 1 h 44 min | 3.60 GB
Genre: Drama

Pastor Dave responds to the unimaginable tragedy of having his church, located on the grounds of the local university, burned down.



General
Gods Not Dead A Light in Darkness 2018 HDRip.XviD.AC3-EVO.avi
Format : AVI
Format/Info : Audio Video Interleave
File size : 1.26 GiB
Duration : 1 h 44 min
Overall bit rate : 1 726 kb/s
Writing library : VirtualDub build 32593/release

Video
ID : 0
Format : MPEG-4 Visual
Format profile : Advanced Simple@L5
Format settings : BVOP2
Format settings, BVOP : 2
Format settings, QPel : No
Format settings, GMC : No warppoints
Format settings, Matrix : Default (H.263)
Muxing mode : Packed bitstream
Codec ID : XVID
Codec ID/Hint : XviD
Duration : 1 h 44 min
Bit rate : 1 333 kb/s
Width : 720 pixels
Height : 304 pixels
Display aspect ratio : 2.35:1
Frame rate : 24.000 FPS
Color space : YUV
Chroma subsampling : 4:2:0
Bit depth : 8 bits
Scan type : Progressive
Compression mode : Lossy
Bits/(Pixel*Frame) : 0.254
Stream size : 994 MiB (77%)
Writing library : XviD 67

Audio
ID : 1
Format : AC-3
Format/Info : Audio Coding 3
Codec ID : 2000
Duration : 1 h 44 min
Bit rate mode : Constant
Bit rate : 384 kb/s
Channel(s) : 6 channels
Channel positions : Front: L C R, Side: L R, LFE
Sampling rate : 48.0 kHz
Frame rate : 31.250 FPS (1536 SPF)
Bit depth : 16 bits
Compression mode : Lossy
Stream size : 286 MiB (22%)
Alignment : Aligned on interleaves
Interleave, duration : 42 ms (1.00 video frame)
Interleave, preload duration : 512 ms
Service kind : Complete Main

General
Gods Not Dead A Light in Darkness 2018 720p WEB-DL DD5 1 H264-CMRG.mkv
Format : Matroska
Format version : Version 4 / Version 2
File size : 3.25 GiB
Duration : 1 h 44 min
Overall bit rate : 4 456 kb/s
Encoded date : UTC 2018-07-31 13:37:38
Writing application : mkvmerge v6.5.0 ('Isn't she lovely') built on Oct 20 2013 12:50:05
Writing library : libebml v1.3.0 + libmatroska v1.4.1

Video
ID : 1
Format : AVC
Format/Info : Advanced Video Codec
Format profile : Main@L3.1
Format settings : 2 Ref Frames
Format settings, CABAC : No
Format settings, RefFrames : 2 frames
Codec ID : V_MPEG4/ISO/AVC
Duration : 1 h 44 min
Bit rate : 3 983 kb/s
Width : 1 280 pixels
Height : 530 pixels
Display aspect ratio : 2.40:1
Frame rate mode : Constant
Frame rate : 24.000 FPS
Color space : YUV
Chroma subsampling : 4:2:0
Bit depth : 8 bits
Scan type : Progressive
Bits/(Pixel*Frame) : 0.245
Stream size : 2.90 GiB (89%)
Language : English
Default : Yes
Forced : No
Color range : Limited
Color primaries : BT.709
Transfer characteristics : BT.709
Matrix coefficients : BT.709

Audio
ID : 2
Format : AC-3
Format/Info : Audio Coding 3
Codec ID : A_AC3
Duration : 1 h 44 min
Bit rate mode : Constant
Bit rate : 384 kb/s
Channel(s) : 6 channels
Channel positions : Front: L C R, Side: L R, LFE
Sampling rate : 48.0 kHz
Frame rate : 31.250 FPS (1536 SPF)
Bit depth : 16 bits
Compression mode : Lossy
Stream size : 286 MiB (9%)
Language : English
Service kind : Complete Main
Default : Yes
Forced : No

Menu
00:00:00.000 : en:Chapter 01
00:07:31.541 : en:Chapter 02
00:18:11.249 : en:Chapter 03
00:26:43.082 : en:Chapter 04
00:33:40.082 : en:Chapter 05
00:43:33.165 : en:Chapter 06
00:52:50.998 : en:Chapter 07
01:02:59.456 : en:Chapter 08
01:11:56.289 : en:Chapter 09
01:23:44.664 : en:Chapter 10
01:30:56.705 : en:Chapter 11
01:40:42.413 : en:Chapter 12

General
Gods Not Dead A Light in Darkness 2018 1080p WEB-DL DD5 1 H264-CMRG.mkv
Format : Matroska
Format version : Version 4 / Version 2
File size : 3.61 GiB
Duration : 1 h 44 min
Overall bit rate : 4 953 kb/s
Encoded date : UTC 2018-07-31 23:31:12
Writing application : mkvmerge v25.0.0 ('Prog Noir') 64-bit
Writing library : libebml v1.3.6 + libmatroska v1.4.9

Video
ID : 1
Format : AVC
Format/Info : Advanced Video Codec
Format profile : High@L4
Format settings : CABAC / 5 Ref Frames
Format settings, CABAC : Yes
Format settings, RefFrames : 5 frames
Codec ID : V_MPEG4/ISO/AVC
Duration : 1 h 44 min
Bit rate : 4 567 kb/s
Width : 1 908 pixels
Height : 792 pixels
Display aspect ratio : 2.40:1
Frame rate mode : Constant
Frame rate : 24.000 FPS
Color space : YUV
Chroma subsampling : 4:2:0
Bit depth : 8 bits
Scan type : Progressive
Bits/(Pixel*Frame) : 0.126
Stream size : 3.33 GiB (92%)
Language : English
Default : Yes
Forced : No
Color range : Limited
Color primaries : BT.709
Transfer characteristics : BT.709
Matrix coefficients : BT.709

Audio
ID : 2
Format : AC-3
Format/Info : Audio Coding 3
Codec ID : A_AC3
Duration : 1 h 44 min
Bit rate mode : Constant
Bit rate : 384 kb/s
Channel(s) : 6 channels
Channel positions : Front: L C R, Side: L R, LFE
Sampling rate : 48.0 kHz
Frame rate : 31.250 FPS (1536 SPF)
Bit depth : 16 bits
Compression mode : Lossy
Delay relative to video : -42 ms
Stream size : 286 MiB (8%)
Language : English
Service kind : Complete Main
Default : Yes
Forced : No

Menu
00:00:00.000 : en:Chapter 01
00:07:31.541 : en:Chapter 02
00:18:11.249 : en:Chapter 03
00:26:43.082 : en:Chapter 04
00:33:40.082 : en:Chapter 05
00:43:33.165 : en:Chapter 06
00:52:50.998 : en:Chapter 07
01:02:59.456 : en:Chapter 08
01:11:56.289 : en:Chapter 09
01:23:44.664 : en:Chapter 10
01:30:56.705 : en:Chapter 11
01:40:42.413 : en:Chapter 12


HDRip Screenshots

God's Not Dead: A Light in Darkness (2018)

God's Not Dead: A Light in Darkness (2018)

God's Not Dead: A Light in Darkness (2018)


WEB-DL 720p Screenshots

Learn to play Van Halen - The Solos

Learn to play Van Halen - The Solos

Learn to play Van Halen - The Solos


WEB-DL 1080p Screenshots

Learn to play Van Halen - The Solos

Learn to play Van Halen - The Solos

Learn to play Van Halen - The Solos


Come Visit My Blog (•‿•)