Godzilla: King of the Monsters (2019)

Posted By: Barfin
1080p (FullHD) / BDRip IMDb
Godzilla: King of the Monsters (2019)

Godzilla 2: King of the Monsters (2019)
BDRip 1080p | MKV / AVC@5395 kb/s | 1920x800 | 2h 11mn | Deutsch (dubbed): DTS, 1509 kb/s (6 ch) | 6.35 GB
Genre: Action | Adventure | Fantasy | Sci-Fi

Fünf Jahre nach dem ersten Auftauchen von Godzilla und den „Muto“ getauften Titanen lebt die Welt in ständiger Angst vor weiteren Urzeit-Monstern. Die Wissenschaftsorganisation Monarch, die sich bislang autark um sämtliche Vorkommnisse rund um die Titanen kümmerte, wird von der Regierung vor die Wahl gestellt: Entweder sie begibt sich unter staatliche Aufsicht, oder Godzilla und alle weiteren bekannten Titanen werden getötet, um weitere Katastrophen zu vermeiden. Dr. Emma Russell (Vera Farmiga) hat derweil ein Bio-Sonar-System namens Orca entwickelt, mit dessen Hilfe sie mit den Urzeit-Riesen kommunizieren und ihnen sogar Anweisungen geben kann. Dafür benötigt sie jedoch die jeweils passende Frequenz der Titanen. Das Gerät fällt schließlich in die Hände des Öko-Terroristen Alan Jonah (Charles Dance), der Emma und ihre Tochter Madison (Millie Bobby Brown) entführt und sämtliche auf der Erde schlummernden Titanen aufwecken will.


General
Unique ID : 216397371975929983204853209043130682399 (0xA2CC9E2BE8FB25F39FFE4FD784048C1F)
Complete name : F:\Godzilla.King.of.the.Monsters.German.1080p.BluRay.x264.mkv
Format : Matroska
Format version : Version 4
File size : 6.35 GiB
Duration : 2 h 11 min
Overall bit rate : 6 907 kb/s
Encoded date : UTC 2019-09-18 14:59:19
Writing application : mkvmerge v7.8.0 ('River Man') 32bit built on Apr 3 2015 12:11:22
Writing library : libebml v1.3.1 + libmatroska v1.4.2

Video
ID : 1
Format : AVC
Format/Info : Advanced Video Codec
Format profile : High@L4.1
Format settings : CABAC / 5 Ref Frames
Format settings, CABAC : Yes
Format settings, ReFrames : 5 frames
Codec ID : V_MPEG4/ISO/AVC
Duration : 2 h 11 min
Bit rate : 5 395 kb/s
Width : 1 920 pixels
Height : 800 pixels
Display aspect ratio : 2.40:1
Frame rate mode : Constant
Frame rate : 23.976 (24000/1001) FPS
Color space : YUV
Chroma subsampling : 4:2:0
Bit depth : 8 bits
Scan type : Progressive
Bits/(Pixel*Frame) : 0.147
Stream size : 4.96 GiB (78%)
Writing library : x264 core 157 r2969 d4099dd
Encoding settings : cabac=1 / ref=5 / deblock=1:-1:-1 / analyse=0x3:0x113 / me=umh / subme=8 / psy=1 / psy_rd=1.00:0.00 / mixed_ref=1 / me_range=16 / chroma_me=1 / trellis=2 / 8x8dct=1 / cqm=0 / deadzone=21,11 / fast_pskip=0 / chroma_qp_offset=-2 / threads=24 / lookahead_threads=4 / sliced_threads=0 / nr=0 / decimate=1 / interlaced=0 / bluray_compat=0 / constrained_intra=0 / bframes=3 / b_pyramid=2 / b_adapt=1 / b_bias=0 / direct=3 / weightb=1 / open_gop=0 / weightp=2 / keyint=250 / keyint_min=23 / scenecut=40 / intra_refresh=0 / rc_lookahead=40 / rc=crf / mbtree=1 / crf=20.0 / qcomp=0.60 / qpmin=0 / qpmax=69 / qpstep=4 / ip_ratio=1.40 / aq=1:1.00
Default : Yes
Forced : No

Audio
ID : 2
Format : DTS
Format/Info : Digital Theater Systems
Codec ID : A_DTS
Duration : 2 h 11 min
Bit rate mode : Constant
Bit rate : 1 509 kb/s
Channel(s) : 6 channels
Channel layout : C L R Ls Rs LFE
Sampling rate : 48.0 kHz
Frame rate : 93.750 FPS (512 SPF)
Bit depth : 24 bits
Compression mode : Lossy
Stream size : 1.39 GiB (22%)
Language : German
Default : Yes
Forced : No

Text
ID : 3
Format : UTF-8
Codec ID : S_TEXT/UTF8
Codec ID/Info : UTF-8 Plain Text
Duration : 1 h 29 min
Bit rate : 0 b/s
Count of elements : 11
Stream size : 407 Bytes (0%)
Language : German
Default : Yes
Forced : Yes

Menu
00:00:00.000 : :Kapitel 01
00:10:53.903 : :Kapitel 02
00:18:06.836 : :Kapitel 03
00:30:27.325 : :Kapitel 04
00:45:18.633 : :Kapitel 05
00:54:11.039 : :Kapitel 06
01:05:41.646 : :Kapitel 07
01:09:31.584 : :Kapitel 08
01:19:31.308 : :Kapitel 09
01:30:06.234 : :Kapitel 10
01:38:36.869 : :Kapitel 11
01:49:58.884 : :Kapitel 12
01:59:28.828 : :Kapitel 13



Screenshots

Godzilla: King of the Monsters (2019)

Godzilla: King of the Monsters (2019)

Godzilla: King of the Monsters (2019)