Tags
Language
Tags

Good Luck Chuck (2007)

Posted By: Tavaz
1080p (FullHD) / BDRip IMDb
Good Luck Chuck (2007)

Good Luck Chuck (2007)
BDRip | MOV | 1920x1080 | H264 @ 3855 kbps | AC-3 @ 448 kbps | 1 h 41 min | 3.05 GiB
Subtitles: English
Genre: Comedy

Cursed since childhood, dentist Charlie Logan cannot find the right woman. Even worse, he learns that each of his ex-girlfriends finds true love with the man she meets after her relationship with him ends. Hearing of Charlie's reputation as a good-luck charm, women from all over line up for a quick tryst. But when Charlie meets the woman of his dreams, he must find a way to break the curse or risk losing her to the next man she meets.

82bb90d597d664550c77566ea746274e.mp4 (3.1 GB)



General
Complete name : ./82bb90d597d664550c77566ea746274e.mp4
Format : MPEG-4
Format profile : Base Media / Version 2
Codec ID : mp42 (mp42/isom/avc1)
File size : 3.05 GiB
Duration : 1 h 41 min
Overall bit rate mode : Variable
Overall bit rate : 4 317 kb/s
Movie name : Good.Luck.Chuck.2007.Unrated.1080p.BluRay.H264.AC3.DD5.1.Will1869
Encoded date : UTC 2020-05-24 15:03:24
Tagged date : UTC 2020-05-24 15:13:58
Writing application : DVDFab 11.0.4.2
Cover : Yes

Video
ID : 1
Format : AVC
Format/Info : Advanced Video Codec
Format profile : Main@L4
Format settings : CABAC / 2 Ref Frames
Format settings, CABAC : Yes
Format settings, RefFrames : 2 frames
Format settings, GOP : M=1, N=24
Codec ID : avc1
Codec ID/Info : Advanced Video Coding
Duration : 1 h 41 min
Source duration : 1 h 41 min
Bit rate mode : Variable
Bit rate : 3 856 kb/s
Maximum bit rate : 5 817 kb/s
Width : 1 920 pixels
Height : 1 080 pixels
Display aspect ratio : 16:9
Frame rate mode : Constant
Frame rate : 23.976 (24000/1001) FPS
Color space : YUV
Chroma subsampling : 4:2:0
Bit depth : 8 bits
Scan type : Progressive
Bits/(Pixel*Frame) : 0.078
Stream size : 2.73 GiB (89%)
Source stream size : 2.73 GiB (89%)
Encoded date : UTC 2020-05-24 15:03:24
Tagged date : UTC 2020-05-24 15:13:58
Color primaries : BT.709
Transfer characteristics : BT.709
Matrix coefficients : BT.709

Audio
ID : 2
Format : AC-3
Format/Info : Audio Coding 3
Format settings, Endianness : Big
Codec ID : ac-3
Duration : 1 h 41 min
Bit rate mode : Constant
Bit rate : 448 kb/s
Channel(s) : 6 channels
Channel positions : Front: L C R, Side: L R, LFE
Sampling rate : 48.0 kHz
Frame rate : 31.250 FPS (1536 SPF)
Bit depth : 16 bits
Compression mode : Lossy
Stream size : 325 MiB (10%)
Title : Undetermined (ac3 5.1)
Service kind : Complete Main
Default : Yes
Alternate group : 1
Encoded date : UTC 2020-05-24 15:03:24
Tagged date : UTC 2020-05-24 15:13:58

Text
ID : 3
Format : VobSub
Codec ID : mp4s-E0
Codec ID/Info : The same subtitle format used on DVDs
Duration : 1 h 41 min
Bit rate mode : Variable
Bit rate : 10.9 kb/s
Maximum bit rate : 2 853 Mb/s
Stream size : 7.88 MiB (0%)
Language : English
Default : Yes
Forced : No
Alternate group : 2
Encoded date : UTC 2020-05-24 15:03:24
Tagged date : UTC 2020-05-24 15:13:56





Good Luck Chuck (2007)


Good Luck Chuck (2007)


Good Luck Chuck (2007)


Good Luck Chuck (2007)


Good Luck Chuck (2007)