Subcategories

Good Kill (2014)

Posted By: Without
Good Kill (2014)

Good Kill (2014)
DVDRip | MKV | 720×400 | AVC@1742 Kbps | English AC-3@448 Kbps | 6 Channels | 01:42:33 | 1.55 GB
Genre: Thriller

A family man begins to question the ethics of his job as a drone pilot.



General
Unique ID : 173005023304920830681167922113746815424 (0x82278E34AC733DB9A2276311BF93C9C0)
Complete name : Good.Kill.2014.DVDRip.X264.AC3-PLAYNOW.mkv
Format : Matroska
Format version : Version 2
File size : 1.56 GiB
Duration : 1h 42mn
Overall bit rate : 2 177 Kbps
Encoded date : UTC 2015-04-04 01:34:02
Writing application : mkvmerge v7.0.0 ('Where We Going') 32bit built on Jun 9 2014 15:08:34
Writing library : libebml v1.3.0 + libmatroska v1.4.1
DURATION : 01:42:33.888000000
NUMBER_OF_FRAMES : 192309
NUMBER_OF_BYTES : 344617728
_STATISTICS_WRITING_APP : mkvmerge v7.0.0 ('Where We Going') 32bit built on Jun 9 2014 15:08:34
_STATISTICS_WRITING_DATE_UTC : 2015-04-04 01:34:02
_STATISTICS_TAGS : BPS DURATION NUMBER_OF_FRAMES NUMBER_OF_BYTES

Video
ID : 1
Format : AVC
Format/Info : Advanced Video Codec
Format profile : High@L4.1
Format settings, CABAC : Yes
Format settings, ReFrames : 5 frames
Codec ID : V_MPEG4/ISO/AVC
Duration : 1h 42mn
Bit rate : 1 742 Kbps
Width : 720 pixels
Height : 400 pixels
Display aspect ratio : 16:9
Frame rate mode : Constant
Frame rate : 23.976 fps
Color space : YUV
Chroma subsampling : 4:2:0
Bit depth : 8 bits
Scan type : Progressive
Bits/(Pixel*Frame) : 0.252
Stream size : 1.21 GiB (77%)
Writing library : x264 core 142 r2431 ac76440
Encoding settings : cabac=1 / ref=5 / deblock=1:0:0 / analyse=0x3:0x3 / me=dia / subme=1 / psy=1 / psy_rd=1.00:0.00 / mixed_ref=0 / me_range=16 / chroma_me=1 / trellis=0 / 8x8dct=1 / cqm=0 / deadzone=21,11 / fast_pskip=1 / chroma_qp_offset=0 / threads=48 / lookahead_threads=3 / sliced_threads=0 / nr=0 / decimate=1 / interlaced=0 / bluray_compat=0 / constrained_intra=0 / bframes=3 / b_pyramid=2 / b_adapt=1 / b_bias=0 / direct=1 / weightb=1 / open_gop=0 / weightp=1 / keyint=240 / keyint_min=23 / scenecut=40 / intra_refresh=0 / rc_lookahead=0 / rc=abr / mbtree=0 / bitrate=1742 / ratetol=1.0 / qcomp=0.60 / qpmin=0 / qpmax=69 / qpstep=4 / vbv_maxrate=62500 / vbv_bufsize=78125 / nal_hrd=none / filler=0 / ip_ratio=1.40 / pb_ratio=1.30 / aq=1:1.00
Default : Yes
Forced : No

Audio
ID : 2
Format : AC-3
Format/Info : Audio Coding 3
Mode extension : CM (complete main)
Format settings, Endianness : Big
Codec ID : A_AC3
Duration : 1h 42mn
Bit rate mode : Constant
Bit rate : 448 Kbps
Channel(s) : 6 channels
Channel positions : Front: L C R, Side: L R, LFE
Sampling rate : 48.0 KHz
Bit depth : 16 bits
Compression mode : Lossy
Stream size : 329 MiB (21%)
Language : English
Default : Yes
Forced : No

Menu
00:00:00.000 : en:Chapter 01
00:07:17.234 : en:Chapter 02
00:16:45.634 : en:Chapter 03
00:25:31.901 : en:Chapter 04
00:35:38.568 : en:Chapter 05
00:44:23.436 : en:Chapter 06
00:51:20.703 : en:Chapter 07
01:00:34.504 : en:Chapter 08
01:12:16.504 : en:Chapter 09
01:18:29.238 : en:Chapter 10
01:27:22.638 : en:Chapter 11
01:37:53.405 : en:Chapter 12



Screenshots

Good Kill (2014)

Good Kill (2014)

Good Kill (2014)

Good Kill (2014)


Come Visit My Blog (•‿•)