Subcategories

Goyôkiba: Oni no Hanzô yawahada koban / Hanzo the Razor: Who's Got the Gold? (1974)

Posted By: Rare-1
Goyôkiba: Oni no Hanzô yawahada koban / Hanzo the Razor: Who's Got the Gold? (1974)

Goyôkiba: Oni no Hanzô yawahada koban / Hanzo the Razor: Who's Got the Gold? (1974)
DVDRip | MKV | 716 x 360 | AVC @ 1502 Kbps | 83 min | 1.01 Gb
Audio: Japanese AC3 2.0 @ 192 Kbps | Subs: English (embedded)
Genre: Action | Japan

Follow the money. In a time of economic disaster for wage earners, Hanzo discovers a conspiracy among high officials to "borrow" gold from the shogunate's treasury and loan it out to the destitute, including impecunious samurai - exacting either interest payments or family heirlooms from the debtors. Along the way, Hanzo extracts a confession from a ghost using his assaulting methods, foils thieves, connects with Heisuke Takei a friend from his youth, offers protection to a forward-thinking physician Genan Sugino who has defamed his ruler, discovers a pleasure ring of young wives and a blind music teacher, and cuckolds a corrupt official under his very nose.

IMDB 6.7/10 from 572 users

Goyôkiba: Oni no Hanzô yawahada koban / Hanzo the Razor: Who's Got the Gold? (1974)


Goyôkiba: Oni no Hanzô yawahada koban / Hanzo the Razor: Who's Got the Gold? (1974)


Director: Yoshio Inoue
Writer: Takeshi Kanda (story), Kazuo Koike (comic), Yasuzô Masumura
Actors: Shintarô Katsu, Kô Nishimura, Mako Midori, Mikio Narita
Rated: R
Runtime: 83 min

After extracting information by raping a ghost, Hanzo uncovers a plot among high officials to steal the shogunate's gold and loan it out to the poor.

Goyôkiba: Oni no Hanzô yawahada koban / Hanzo the Razor: Who's Got the Gold? (1974)



General
Unique ID : 253524016434307166972813505791990744845 (0xBEBAF311981A0EB8AA9119C878C4C70D)
Complete name : E:\HDNLUF106\New folder (2)\Mass Folder Uploader\data/Hanzo the Razor Who's Got the Gold (1974) DVDRip/hanzo the razor who's got the gold ntsc dvd dd2.0 x264-rr_.mkv
Format : Matroska
Format version : Version 4 / Version 2
File size : 1.01 GiB
Duration : 1h 23mn
Overall bit rate : 1 729 Kbps
Encoded date : UTC 2016-06-02 11:15:20
Writing application : mkvmerge v8.9.0 ('Father Daughter') 64bit
Writing library : libebml v1.3.3 + libmatroska v1.4.4
DURATION : 01:23:42.051000000
NUMBER_OF_FRAMES : 788
NUMBER_OF_BYTES : 21365
_STATISTICS_WRITING_APP : mkvmerge v8.9.0 ('Father Daughter') 64bit
_STATISTICS_WRITING_DATE_UTC : 2016-06-02 11:15:20
_STATISTICS_TAGS : BPS DURATION NUMBER_OF_FRAMES NUMBER_OF_BYTES

Video
ID : 1
Format : AVC
Format/Info : Advanced Video Codec
Format profile : High@L4.1
Format settings, CABAC : Yes
Format settings, ReFrames : 16 frames
Codec ID : V_MPEG4/ISO/AVC
Duration : 1h 23mn
Bit rate : 1 502 Kbps
Width : 716 pixels
Height : 360 pixels
Display aspect ratio : 2.35:1
Original display aspect ratio : 2.35:1
Frame rate mode : Constant
Frame rate : 23.976 fps
Color space : YUV
Chroma subsampling : 4:2:0
Bit depth : 8 bits
Scan type : Progressive
Bits/(Pixel*Frame) : 0.243
Stream size : 901 MiB (87%)
Writing library : x264 core 148 r2692 64f4e24
Encoding settings : cabac=1 / ref=16 / deblock=1:-3:-3 / analyse=0x3:0x133 / me=umh / subme=10 / psy=1 / psy_rd=0.95:0.00 / mixed_ref=1 / me_range=24 / chroma_me=1 / trellis=2 / 8x8dct=1 / cqm=0 / deadzone=21,11 / fast_pskip=0 / chroma_qp_offset=-2 / threads=3 / lookahead_threads=1 / sliced_threads=0 / nr=0 / decimate=0 / interlaced=0 / bluray_compat=0 / constrained_intra=0 / bframes=12 / b_pyramid=2 / b_adapt=2 / b_bias=0 / direct=3 / weightb=1 / open_gop=0 / weightp=2 / keyint=240 / keyint_min=23 / scenecut=40 / intra_refresh=0 / rc_lookahead=60 / rc=crf / mbtree=0 / crf=18.0 / qcomp=0.60 / qpmin=0 / qpmax=69 / qpstep=4 / vbv_maxrate=62500 / vbv_bufsize=78125 / crf_max=0.0 / nal_hrd=none / filler=0 / ip_ratio=1.20 / pb_ratio=1.10 / aq=2:1.00
Default : Yes
Forced : No

Audio
ID : 2
Format : AC-3
Format/Info : Audio Coding 3
Format profile : Dolby Digital
Mode extension : CM (complete main)
Format settings, Endianness : Big
Codec ID : A_AC3
Duration : 1h 23mn
Bit rate mode : Constant
Bit rate : 192 Kbps
Channel(s) : 2 channels
Channel positions : Front: L R
Sampling rate : 48.0 KHz
Compression mode : Lossy
Stream size : 115 MiB (11%)
Language : Japanese
Default : Yes
Forced : No

Text
ID : 3
Format : UTF-8
Codec ID : S_TEXT/UTF8
Codec ID/Info : UTF-8 Plain Text
Language : English
Default : Yes
Forced : No


Many Thanks to Original uploader.


For More Rare Movies Check out my blog!


Download Links :

No Mirrors Please
Sample
http://nitroflare.com/view/48E0429E1351408/sample.mkv