Gringo: The Dangerous Life of John McAfee (2016)

Posted By: notbanned
Gringo: The Dangerous Life of John McAfee (2016)

Gringo: The Dangerous Life of John McAfee (2016)
WEBRip | 1280x720 | .MKV/AVC @ 2301 Kbps | 1h 36mn | 2.03 GiB
Audio: English AC3 640 kbps, 6 channels | Subs: English
Genre: Documentary

Mysteries abound in the life of John McAfee. He made millions creating antivirus software, then reinvented himself as a yogi, a proponent of herbal medicine, and a serial entrepreneur. He was known for his charm and generosity. Then his life took another turn. He moved from the US to Belize and built a heavily armed compound in the jungle, like a modern day Heart of Darkness. McAfee never shied away from media attention and boasted of his libertine lifestyle, maintaining a harem of young women. In 2012 his neighbour in Belize, an American named Gregory Faull, was found murdered by a gunshot. Sought for questioning by local authorities, McAfee fled to Guatemala, then returned to the US where he pursued the Libertarian Party nomination for President in 2016. Over the years, journalists have told pieces of McAfee's story (including the infamous Vice report accidentally revealing his secret location). Here the Academy Award-nominated filmmaker Nanette Burstein delivers a deep.
More info


General
Unique ID : 180751868520565741730062668213100005338 (0x87FB8B29F1C1E3F1B836FA73B1D0C7DA)
Complete name : Gringo.The.Dangerous.Life.of.John.McAfee.2016.720p.mkv
Format : Matroska
Format version : Version 4 / Version 2
File size : 2.03 GiB
Duration : 1h 36mn
Overall bit rate : 3 001 Kbps

Video
ID : 1
Format : AVC
Format/Info : Advanced Video Codec
Format profile : High@L3.1
Format settings, CABAC : Yes
Format settings, ReFrames : 5 frames
Codec ID : V_MPEG4/ISO/AVC
Duration : 1h 36mn
Bit rate : 2 301 Kbps
Width : 1 280 pixels
Height : 720 pixels
Display aspect ratio : 16:9
Frame rate mode : Constant
Frame rate : 23.976 fps
Color space : YUV
Chroma subsampling : 4:2:0
Bit depth : 8 bits
Scan type : Progressive
Bits/(Pixel*Frame) : 0.104
Stream size : 1.56 GiB (77%)
Default : Yes
Forced : No

Audio
ID : 2
Format : E-AC-3
Format/Info : Audio Coding 3
Format settings, Endianness : Big
Codec ID : A_EAC3
Duration : 1h 36mn
Bit rate mode : Constant
Bit rate : 640 Kbps
Channel(s) : 6 channels
Channel positions : Front: L C R, Side: L R, LFE
Sampling rate : 48.0 KHz
Compression mode : Lossy
Stream size : 444 MiB (21%)
Language : English
Default : Yes
Forced : No

Text
ID : 3
Format : UTF-8
Codec ID : S_TEXT/UTF8
Codec ID/Info : UTF-8 Plain Text
Language : English
Default : No
Forced : No


Screenshots:

Gringo: The Dangerous Life of John McAfee (2016)

Gringo: The Dangerous Life of John McAfee (2016)

Gringo: The Dangerous Life of John McAfee (2016)

Gringo: The Dangerous Life of John McAfee (2016)