Hacksaw Ridge (2016)

Posted By: Without
Hacksaw Ridge (2016)

Hacksaw Ridge (2016)
BDRip | MKV | 720x302 | AVC@766 kb/s | English AAC@110 kb/s | Subs: English | 2 channels | 2 h 19 min | 875 MB
BRRip | AVI | 720x302 | XviD@1596 kb/s | English AC3@448 kb/s | 6 channels | 2 h 19 min | 2.00 GB
BDRip 720p | MKV | 1280x536 | AVC@4974 kb/s | English AC3@640 kb/s
Subs: English | 6 channels | 2 h 19 min | 5.46 GB
BDRip 1080p | MKV | 1920x808 | AVC@9470 kb/s | English AC3@640 kb/s
Subs: English | 6 channels | 2 h 19 min | 9.83 GB
BRRip 720p | MKV | 1280x536 | HEVC@768 kb/s | English AC3@640 kb/s | 6 channels | 2 h 19 min | 1.39 GB
BRRip 1080p | MKV | 1920x802 | HEVC@2441 kb/s | English AC3@640 kb/s | 6 channels | 2 h 19 min | 3.05 GB
Genre: Drama, History, War

WWII American Army Medic Desmond T. Doss, who served during the Battle of Okinawa, refuses to kill people, and becomes the first man in American history to receive the Medal of Honor without firing a shot.

IMDB - Top Rated Movies #119 | Nominated for 6 Oscars. Another 37 wins & 72 nominations


General
Unique ID : 178466310958152509124838239924019905794 (0x86435C79D28BB53793A704370C51C502)
Complete name : J:\Hacksaw.Ridge.2016.BDRip.x264-SPARKS\Hacksaw.Ridge.2016.BDRip.x264-SPARKS.mkv
Format : Matroska
Format version : Version 4 / Version 2
File size : 875 MiB
Duration : 2 h 19 min
Overall bit rate : 878 kb/s
Encoded date : UTC 2017-02-08 00:54:40
Writing application : mkvmerge v8.3.0 ('Over the Horizon') 64bit
Writing library : libebml v1.3.1 + libmatroska v1.4.2

Video
ID : 1
Format : AVC
Format/Info : Advanced Video Codec
Format profile : High@L3.1
Format settings, CABAC : Yes
Format settings, ReFrames : 5 frames
Codec ID : V_MPEG4/ISO/AVC
Duration : 2 h 19 min
Bit rate : 766 kb/s
Width : 720 pixels
Height : 302 pixels
Display aspect ratio : 2.40:1
Frame rate mode : Constant
Frame rate : 23.976 FPS
Color space : YUV
Chroma subsampling : 4:2:0
Bit depth : 8 bits
Scan type : Progressive
Bits/(Pixel*Frame) : 0.147
Stream size : 763 MiB (87%)
Title : X264
Writing library : x264 core 148 r2744 b97ae06
Encoding settings : cabac=1 / ref=5 / deblock=1:-2:-2 / analyse=0x3:0x113 / me=hex / subme=8 / psy=1 / psy_rd=0.90:0.00 / mixed_ref=1 / me_range=16 / chroma_me=1 / trellis=2 / 8x8dct=1 / cqm=0 / deadzone=21,11 / fast_pskip=1 / chroma_qp_offset=-2 / threads=9 / lookahead_threads=1 / sliced_threads=0 / nr=0 / decimate=1 / interlaced=0 / bluray_compat=0 / constrained_intra=0 / bframes=3 / b_pyramid=2 / b_adapt=1 / b_bias=0 / direct=3 / weightb=1 / open_gop=0 / weightp=2 / keyint=250 / keyint_min=23 / scenecut=40 / intra_refresh=0 / rc_lookahead=50 / rc=crf / mbtree=1 / crf=19.0 / qcomp=0.60 / qpmin=0 / qpmax=69 / qpstep=4 / ip_ratio=1.40 / aq=1:1.00
Language : English
Default : Yes
Forced : No
Color range : Limited
Matrix coefficients : BT.709

Audio
ID : 2
Format : AAC
Format/Info : Advanced Audio Codec
Format profile : LC
Codec ID : A_AAC
Duration : 2 h 19 min
Bit rate : 110 kb/s
Channel(s) : 2 channels
Channel positions : Front: L R
Sampling rate : 48.0 kHz
Frame rate : 46.875 FPS (1024 spf)
Compression mode : Lossy
Stream size : 109 MiB (13%)
Language : English
Default : Yes
Forced : No

Text #1
ID : 3
Format : UTF-8
Codec ID : S_TEXT/UTF8
Codec ID/Info : UTF-8 Plain Text
Duration : 2 h 8 min
Bit rate : 48 b/s
Count of elements : 1342
Stream size : 46.1 KiB (0%)
Title : English
Language : English
Default : No
Forced : No

Text #2
ID : 4
Format : UTF-8
Codec ID : S_TEXT/UTF8
Codec ID/Info : UTF-8 Plain Text
Duration : 2 h 9 min
Bit rate : 55 b/s
Count of elements : 1655
Stream size : 53.2 KiB (0%)
Title : English SDH
Language : English
Default : No
Forced : No

Menu
00:00:00.000 : en:00:00:00.000
00:09:18.766 : en:00:09:18.766
00:18:41.996 : en:00:18:41.996
00:26:34.510 : en:00:26:34.510
00:33:00.562 : en:00:33:00.562
00:40:04.152 : en:00:40:04.152
00:50:07.212 : en:00:50:07.212
00:57:01.543 : en:00:57:01.543
01:04:21.649 : en:01:04:21.649
01:17:50.207 : en:01:17:50.207
01:23:58.700 : en:01:23:58.700
01:31:21.726 : en:01:31:21.726
01:39:02.812 : en:01:39:02.812
01:46:07.569 : en:01:46:07.569
01:59:48.306 : en:01:59:48.306
02:07:13.292 : en:02:07:13.292

General
Complete name : J:\Hacksaw.Ridge.2016.BRRip.XviD.AC3-RARBG\Hacksaw.Ridge.2016.BRRip.XviD.AC3-RARBG.avi
Format : AVI
Format/Info : Audio Video Interleave
Format profile : OpenDML
File size : 2.00 GiB
Duration : 2 h 19 min
Overall bit rate : 2 056 kb/s
Writing application : Lavf56.40.101
Writing library : VirtualDub build 35491/release

Video
ID : 0
Format : MPEG-4 Visual
Format profile : Simple@L5
Format settings, BVOP : No
Format settings, QPel : No
Format settings, GMC : No warppoints
Format settings, Matrix : Default (H.263)
Codec ID : XVID
Codec ID/Hint : XviD
Duration : 2 h 19 min
Bit rate : 1 596 kb/s
Width : 720 pixels
Height : 302 pixels
Display aspect ratio : 2.40:1
Frame rate : 23.976 (24000/1001) FPS
Color space : YUV
Chroma subsampling : 4:2:0
Bit depth : 8 bits
Scan type : Progressive
Compression mode : Lossy
Bits/(Pixel*Frame) : 0.306
Stream size : 1.55 GiB (78%)
Writing library : Lavc56.60.100

Audio
ID : 1
Format : AC-3
Format/Info : Audio Coding 3
Mode extension : CM (complete main)
Format settings, Endianness : Big
Codec ID : 2000
Duration : 2 h 19 min
Bit rate mode : Constant
Bit rate : 448 kb/s
Channel(s) : 6 channels
Channel positions : Front: L C R, Side: L R, LFE
Sampling rate : 48.0 kHz
Frame rate : 31.250 FPS (1536 spf)
Bit depth : 16 bits
Compression mode : Lossy
Stream size : 446 MiB (22%)
Alignment : Aligned on interleaves
Interleave, duration : 42 ms (1.00 video frame)
Interleave, preload duration : 512 ms

General
Unique ID : 183239463535229616126540084505969353236 (0x89DAA31139CF6971BB2921D4D836E214)
Complete name : J:\Hacksaw.Ridge.2016.720p.BluRay.x264-SPARKS\Hacksaw.Ridge.2016.720p.BluRay.x264-SPARKS.mkv
Format : Matroska
Format version : Version 4 / Version 2
File size : 5.46 GiB
Duration : 2 h 19 min
Overall bit rate : 5 615 kb/s
Encoded date : UTC 2017-02-08 00:26:47
Writing application : mkvmerge v8.3.0 ('Over the Horizon') 64bit
Writing library : libebml v1.3.1 + libmatroska v1.4.2

Video
ID : 1
Format : AVC
Format/Info : Advanced Video Codec
Format profile : High@L4.1
Format settings, CABAC : Yes
Format settings, ReFrames : 5 frames
Codec ID : V_MPEG4/ISO/AVC
Duration : 2 h 19 min
Bit rate : 4 974 kb/s
Width : 1 280 pixels
Height : 536 pixels
Display aspect ratio : 2.40:1
Frame rate mode : Constant
Frame rate : 23.976 FPS
Color space : YUV
Chroma subsampling : 4:2:0
Bit depth : 8 bits
Scan type : Progressive
Bits/(Pixel*Frame) : 0.302
Stream size : 4.84 GiB (89%)
Writing library : x264 core 148 r2744 b97ae06
Encoding settings : cabac=1 / ref=5 / deblock=1:0:0 / analyse=0x3:0x133 / me=umh / subme=7 / psy=1 / psy_rd=1.00:0.00 / mixed_ref=1 / me_range=16 / chroma_me=1 / trellis=1 / 8x8dct=1 / cqm=0 / deadzone=21,11 / fast_pskip=0 / chroma_qp_offset=-2 / threads=12 / lookahead_threads=2 / sliced_threads=0 / nr=0 / decimate=1 / interlaced=0 / bluray_compat=0 / constrained_intra=0 / bframes=3 / b_pyramid=2 / b_adapt=1 / b_bias=0 / direct=1 / weightb=1 / open_gop=0 / weightp=2 / keyint=250 / keyint_min=23 / scenecut=40 / intra_refresh=0 / rc_lookahead=40 / rc=2pass / mbtree=1 / bitrate=4974 / ratetol=1.0 / qcomp=0.60 / qpmin=0 / qpmax=69 / qpstep=4 / cplxblur=20.0 / qblur=0.5 / ip_ratio=1.40 / aq=1:1.00
Language : English
Default : Yes
Forced : No

Audio
ID : 2
Format : AC-3
Format/Info : Audio Coding 3
Mode extension : CM (complete main)
Format settings, Endianness : Big
Codec ID : A_AC3
Duration : 2 h 19 min
Bit rate mode : Constant
Bit rate : 640 kb/s
Channel(s) : 6 channels
Channel positions : Front: L C R, Side: L R, LFE
Sampling rate : 48.0 kHz
Frame rate : 31.250 FPS (1536 spf)
Bit depth : 16 bits
Compression mode : Lossy
Stream size : 638 MiB (11%)
Language : English
Default : Yes
Forced : No

Text #1
ID : 3
Format : UTF-8
Codec ID : S_TEXT/UTF8
Codec ID/Info : UTF-8 Plain Text
Duration : 2 h 8 min
Bit rate : 48 b/s
Count of elements : 1342
Stream size : 46.1 KiB (0%)
Title : English
Language : English
Default : No
Forced : No

Text #2
ID : 4
Format : UTF-8
Codec ID : S_TEXT/UTF8
Codec ID/Info : UTF-8 Plain Text
Duration : 2 h 9 min
Bit rate : 55 b/s
Count of elements : 1655
Stream size : 53.2 KiB (0%)
Title : English SDH
Language : English
Default : No
Forced : No

Menu
00:00:00.000 : en:00:00:00.000
00:09:18.766 : en:00:09:18.766
00:18:41.996 : en:00:18:41.996
00:26:34.510 : en:00:26:34.510
00:33:00.562 : en:00:33:00.562
00:40:04.152 : en:00:40:04.152
00:50:07.212 : en:00:50:07.212
00:57:01.543 : en:00:57:01.543
01:04:21.649 : en:01:04:21.649
01:17:50.207 : en:01:17:50.207
01:23:58.700 : en:01:23:58.700
01:31:21.726 : en:01:31:21.726
01:39:02.812 : en:01:39:02.812
01:46:07.569 : en:01:46:07.569
01:59:48.306 : en:01:59:48.306
02:07:13.292 : en:02:07:13.292

General
Unique ID : 240823682914645083096916050171173708717 (0xB52CF4480B14399A97D51BAC619EA3AD)
Complete name : J:\Hacksaw.Ridge.2016.1080p.BluRay.x264-SPARKS\Hacksaw.Ridge.2016.1080p.BluRay.x264-SPARKS.mkv
Format : Matroska
Format version : Version 4 / Version 2
File size : 9.84 GiB
Duration : 2 h 19 min
Overall bit rate : 10.1 Mb/s
Encoded date : UTC 2017-02-08 00:38:01
Writing application : mkvmerge v8.3.0 ('Over the Horizon') 64bit
Writing library : libebml v1.3.1 + libmatroska v1.4.2

Video
ID : 1
Format : AVC
Format/Info : Advanced Video Codec
Format profile : High@L4.1
Format settings, CABAC : Yes
Format settings, ReFrames : 5 frames
Codec ID : V_MPEG4/ISO/AVC
Duration : 2 h 19 min
Bit rate : 9 470 kb/s
Width : 1 920 pixels
Height : 808 pixels
Display aspect ratio : 2.40:1
Frame rate mode : Constant
Frame rate : 23.976 FPS
Color space : YUV
Chroma subsampling : 4:2:0
Bit depth : 8 bits
Scan type : Progressive
Bits/(Pixel*Frame) : 0.255
Stream size : 9.21 GiB (94%)
Writing library : x264 core 148 r2744 b97ae06
Encoding settings : cabac=1 / ref=5 / deblock=1:0:0 / analyse=0x3:0x133 / me=umh / subme=7 / psy=1 / psy_rd=1.00:0.00 / mixed_ref=1 / me_range=16 / chroma_me=1 / trellis=1 / 8x8dct=1 / cqm=0 / deadzone=21,11 / fast_pskip=0 / chroma_qp_offset=-2 / threads=25 / lookahead_threads=4 / sliced_threads=0 / nr=0 / decimate=1 / interlaced=0 / bluray_compat=0 / constrained_intra=0 / bframes=3 / b_pyramid=2 / b_adapt=1 / b_bias=0 / direct=1 / weightb=1 / open_gop=0 / weightp=2 / keyint=250 / keyint_min=23 / scenecut=40 / intra_refresh=0 / rc_lookahead=40 / rc=2pass / mbtree=1 / bitrate=9470 / ratetol=1.0 / qcomp=0.60 / qpmin=0 / qpmax=69 / qpstep=4 / cplxblur=20.0 / qblur=0.5 / ip_ratio=1.40 / aq=1:1.00
Language : English
Default : Yes
Forced : No

Audio
ID : 2
Format : AC-3
Format/Info : Audio Coding 3
Mode extension : CM (complete main)
Format settings, Endianness : Big
Codec ID : A_AC3
Duration : 2 h 19 min
Bit rate mode : Constant
Bit rate : 640 kb/s
Channel(s) : 6 channels
Channel positions : Front: L C R, Side: L R, LFE
Sampling rate : 48.0 kHz
Frame rate : 31.250 FPS (1536 spf)
Bit depth : 16 bits
Compression mode : Lossy
Stream size : 638 MiB (6%)
Language : English
Default : Yes
Forced : No

Text #1
ID : 3
Format : UTF-8
Codec ID : S_TEXT/UTF8
Codec ID/Info : UTF-8 Plain Text
Duration : 2 h 8 min
Bit rate : 48 b/s
Count of elements : 1342
Stream size : 46.1 KiB (0%)
Title : English
Language : English
Default : No
Forced : No

Text #2
ID : 4
Format : UTF-8
Codec ID : S_TEXT/UTF8
Codec ID/Info : UTF-8 Plain Text
Duration : 2 h 9 min
Bit rate : 55 b/s
Count of elements : 1655
Stream size : 53.2 KiB (0%)
Title : English SDH
Language : English
Default : No
Forced : No

Menu
00:00:00.000 : en:00:00:00.000
00:09:18.766 : en:00:09:18.766
00:18:41.996 : en:00:18:41.996
00:26:34.510 : en:00:26:34.510
00:33:00.562 : en:00:33:00.562
00:40:04.152 : en:00:40:04.152
00:50:07.212 : en:00:50:07.212
00:57:01.543 : en:00:57:01.543
01:04:21.649 : en:01:04:21.649
01:17:50.207 : en:01:17:50.207
01:23:58.700 : en:01:23:58.700
01:31:21.726 : en:01:31:21.726
01:39:02.812 : en:01:39:02.812
01:46:07.569 : en:01:46:07.569
01:59:48.306 : en:01:59:48.306
02:07:13.292 : en:02:07:13.292

Video
ID : 1
Format : HEVC
Format/Info : High Efficiency Video Coding
Format profile : Main@L3.1@Main
Codec ID : V_MPEGH/ISO/HEVC
Duration : 2 h 19 min
Bit rate : 768 kb/s
Width : 1 280 pixels
Height : 536 pixels
Display aspect ratio : 2.40:1
Frame rate mode : Constant
Frame rate : 23.976 (24000/1001) FPS
Color space : YUV
Chroma subsampling : 4:2:0
Bit depth : 8 bits
Bits/(Pixel*Frame) : 0.047
Stream size : 765 MiB (53%)
Writing library : x265 2.1:[Windows][GCC 5.4.0][64 bit] 8bit
Encoding settings : wpp / ctu=64 / min-cu-size=8 / max-tu-size=32 / tu-intra-depth=1 / tu-inter-depth=1 / me=1 / subme=1 / merange=57 / no-rect / no-amp / max-merge=2 / temporal-mvp / early-skip / rskip / rdpenalty=0 / no-tskip / no-tskip-fast / strong-intra-smoothing / no-lossless / no-cu-lossless / no-constrained-intra / fast-intra / open-gop / no-temporal-layers / interlace=0 / keyint=240 / min-keyint=24 / scenecut=40 / rc-lookahead=15 / lookahead-slices=0 / bframes=4 / bframe-bias=0 / b-adapt=0 / ref=2 / limit-refs=3 / no-limit-modes / weightp / no-weightb / aq-mode=1 / qg-size=32 / aq-strength=1.00 / cbqpoffs=0 / crqpoffs=0 / rd=2 / psy-rd=2.00 / rdoq-level=0 / psy-rdoq=0.00 / log2-max-poc-lsb=8 / no-rd-refine / signhide / deblock=0:0 / sao / no-sao-non-deblock / b-pyramid / cutree / no-intra-refresh / rc=crf / crf=22.0 / qcomp=0.60 / qpmin=0 / qpmax=69 / qpstep=4 / ipratio=1.40 / pbratio=1.30
Default : Yes
Forced : No
Color range : Limited
Color primaries : BT.709
Transfer characteristics : BT.709
Matrix coefficients : BT.709

Audio
ID : 2
Format : AC-3
Format/Info : Audio Coding 3
Mode extension : CM (complete main)
Format settings, Endianness : Big
Codec ID : A_AC3
Duration : 2 h 19 min
Bit rate mode : Constant
Bit rate : 640 kb/s
Channel(s) : 6 channels
Channel positions : Front: L C R, Side: L R, LFE
Sampling rate : 48.0 kHz
Frame rate : 31.250 FPS (1536 spf)
Bit depth : 16 bits
Compression mode : Lossy
Stream size : 638 MiB (45%)
Title : Surround
Language : English
Default : Yes
Forced : No

Menu
00:00:00.000 : :00:00:00.000
00:09:18.767 : :00:09:18.766
00:18:41.996 : :00:18:41.996
00:26:34.510 : :00:26:34.510
00:33:00.562 : :00:33:00.562
00:40:04.152 : :00:40:04.152
00:50:07.213 : :00:50:07.212
00:57:01.543 : :00:57:01.543
01:04:21.649 : :01:04:21.649
01:17:50.207 : :01:17:50.207
01:23:58.700 : :01:23:58.700
01:31:21.726 : :01:31:21.726
01:39:02.812 : :01:39:02.812
01:46:07.570 : :01:46:07.569
01:59:48.306 : :01:59:48.306
02:07:13.292 : :02:07:13.292

Video
ID : 1
Format : HEVC
Format/Info : High Efficiency Video Coding
Format profile : Main@L4@Main
Codec ID : V_MPEGH/ISO/HEVC
Duration : 2 h 19 min
Bit rate : 2 441 kb/s
Width : 1 920 pixels
Height : 802 pixels
Display aspect ratio : 2.40:1
Frame rate mode : Constant
Frame rate : 23.976 (24000/1001) FPS
Color space : YUV
Chroma subsampling : 4:2:0
Bit depth : 8 bits
Bits/(Pixel*Frame) : 0.066
Stream size : 2.38 GiB (78%)
Writing library : x265 2.1:[Windows][GCC 5.4.0][64 bit] 8bit
Encoding settings : wpp / ctu=64 / min-cu-size=8 / max-tu-size=32 / tu-intra-depth=1 / tu-inter-depth=1 / me=1 / subme=2 / merange=57 / no-rect / no-amp / max-merge=2 / temporal-mvp / early-skip / rskip / rdpenalty=0 / no-tskip / no-tskip-fast / strong-intra-smoothing / no-lossless / no-cu-lossless / no-constrained-intra / fast-intra / open-gop / no-temporal-layers / interlace=0 / keyint=240 / min-keyint=24 / scenecut=40 / rc-lookahead=15 / lookahead-slices=5 / bframes=4 / bframe-bias=0 / b-adapt=0 / ref=2 / limit-refs=3 / no-limit-modes / weightp / no-weightb / aq-mode=1 / qg-size=32 / aq-strength=1.00 / cbqpoffs=0 / crqpoffs=0 / rd=2 / psy-rd=2.00 / rdoq-level=0 / psy-rdoq=0.00 / log2-max-poc-lsb=8 / no-rd-refine / signhide / deblock=0:0 / sao / no-sao-non-deblock / b-pyramid / cutree / no-intra-refresh / rc=abr / bitrate=2500 / qcomp=0.60 / qpmin=0 / qpmax=69 / qpstep=4 / ipratio=1.40 / pbratio=1.30
Default : Yes
Forced : No
Color range : Limited
Color primaries : BT.709
Transfer characteristics : BT.709
Matrix coefficients : BT.709

Audio
ID : 2
Format : AC-3
Format/Info : Audio Coding 3
Mode extension : CM (complete main)
Format settings, Endianness : Big
Codec ID : A_AC3
Duration : 2 h 19 min
Bit rate mode : Constant
Bit rate : 640 kb/s
Channel(s) : 6 channels
Channel positions : Front: L C R, Side: L R, LFE
Sampling rate : 48.0 kHz
Frame rate : 31.250 FPS (1536 spf)
Bit depth : 16 bits
Compression mode : Lossy
Stream size : 638 MiB (20%)
Title : Surround
Language : English
Default : Yes
Forced : No

Menu
00:00:00.000 : :00:00:00.000
00:09:18.767 : :00:09:18.766
00:18:41.996 : :00:18:41.996
00:26:34.510 : :00:26:34.510
00:33:00.562 : :00:33:00.562
00:40:04.152 : :00:40:04.152
00:50:07.213 : :00:50:07.212
00:57:01.543 : :00:57:01.543
01:04:21.649 : :01:04:21.649
01:17:50.207 : :01:17:50.207
01:23:58.700 : :01:23:58.700
01:31:21.726 : :01:31:21.726
01:39:02.812 : :01:39:02.812
01:46:07.570 : :01:46:07.569
01:59:48.306 : :01:59:48.306
02:07:13.292 : :02:07:13.292


BDRip Screenshots

Hacksaw Ridge (2016)

Hacksaw Ridge (2016)

Hacksaw Ridge (2016)


BRRip Screenshots

Hacksaw Ridge (2016)

Hacksaw Ridge (2016)

Hacksaw Ridge (2016)


BDRip 720p Screenshots

Hacksaw Ridge (2016)

Hacksaw Ridge (2016)

Hacksaw Ridge (2016)


BDRip 1080p Screenshots

Hacksaw Ridge (2016)

Hacksaw Ridge (2016)

Hacksaw Ridge (2016)


BRRip 720p Screenshots

Hacksaw Ridge (2016)

Hacksaw Ridge (2016)

Hacksaw Ridge (2016)


BRRip 1080p Screenshots

Hacksaw Ridge (2016)

Hacksaw Ridge (2016)

Hacksaw Ridge (2016)


Come Visit My Blog (•‿•)