Happy Gilmore (1996)

Posted By: NaVi7
Happy Gilmore (1996)

Happy Gilmore (1996)
BDRip 1080p | MKV / AVC, 10.1 Mbps | 1920x1040 | 1h 31mn | 7.94 GB
English: DTS, 1509 Kbps (6 ch) | French: DTS, 768 Kbps (6 ch) | Subtitles: French
Genre: Comedy | Romance | Sport

A Hockey player wannabe finds out that he has the most powerful golf drive in history. He joins the P.G.A. tour to make some money to save grandma's house. The downside is that his hocky player mentality doesn't really go on the P.G.A. tour. Especially with the favorite to win the championship.

imdb - 1 win & 3 nominations.

General
Unique ID : 249486283171013639591384681488264628930 (0xBBB14F72EB912EA1822ED1AD89EA8AC2)
Complete name : fhd-happy.gilmore.1080p.mkv
Format : Matroska
Format version : Version 2
File size : 7.94 GiB
Duration : 1h 31mn
Overall bit rate : 12.4 Mbps
Encoded date : UTC 2010-09-22 16:33:58
Writing application : mkvmerge v4.1.1 ('Bouncin' Back') built on Jul 3 2010 22:54:08
Writing library : libebml v1.0.0 + libmatroska v1.0.0

Video
ID : 1
Format : AVC
Format/Info : Advanced Video Codec
Format profile : High@L4.1
Format settings, CABAC : Yes
Format settings, ReFrames : 4 frames
Codec ID : V_MPEG4/ISO/AVC
Duration : 1h 31mn
Bit rate : 10.1 Mbps
Width : 1 920 pixels
Height : 1 040 pixels
Display aspect ratio : 1.85:1
Frame rate mode : Constant
Frame rate : 23.976 fps
Color space : YUV
Chroma subsampling : 4:2:0
Bit depth : 8 bits
Scan type : Progressive
Bits/(Pixel*Frame) : 0.211
Stream size : 6.32 GiB (80%)
Writing library : x264 core 105 r1724 b02df7b
Encoding settings : cabac=1 / ref=4 / deblock=1:0:0 / analyse=0x3:0x113 / me=umh / subme=7 / psy=1 / psy_rd=1.00:0.00 / mixed_ref=1 / me_range=16 / chroma_me=1 / trellis=1 / 8x8dct=1 / cqm=0 / deadzone=21,11 / fast_pskip=0 / chroma_qp_offset=-2 / threads=6 / sliced_threads=0 / nr=0 / decimate=1 / interlaced=0 / constrained_intra=0 / bframes=3 / b_pyramid=2 / b_adapt=1 / b_bias=0 / direct=1 / weightb=1 / open_gop=0 / weightp=2 / keyint=250 / keyint_min=23 / scenecut=40 / intra_refresh=0 / rc_lookahead=40 / rc=2pass / mbtree=1 / bitrate=10098 / ratetol=1.0 / qcomp=0.60 / qpmin=10 / qpmax=51 / qpstep=4 / cplxblur=20.0 / qblur=0.5 / ip_ratio=1.40 / aq=1:1.00
Language : French
Default : Yes
Forced : No

Audio #1
ID : 2
Format : DTS
Format/Info : Digital Theater Systems
Mode : 16
Format settings, Endianness : Big
Codec ID : A_DTS
Duration : 1h 31mn
Bit rate mode : Constant
Bit rate : 768 Kbps
Channel(s) : 6 channels
Channel positions : Front: L C R, Side: L R, LFE
Sampling rate : 48.0 KHz
Bit depth : 24 bits
Compression mode : Lossy
Stream size : 505 MiB (6%)
Title : DTS 5.1
Language : French
Default : Yes
Forced : No

Audio #2
ID : 3
Format : DTS
Format/Info : Digital Theater Systems
Mode : 16
Format settings, Endianness : Big
Codec ID : A_DTS
Duration : 1h 31mn
Bit rate mode : Constant
Bit rate : 1 509 Kbps
Channel(s) : 6 channels
Channel positions : Front: L C R, Side: L R, LFE
Sampling rate : 48.0 KHz
Bit depth : 24 bits
Compression mode : Lossy
Stream size : 992 MiB (12%)
Title : DTS 5.1
Language : English
Default : No
Forced : No

Text #1
ID : 4
Format : UTF-8
Codec ID : S_TEXT/UTF8
Codec ID/Info : UTF-8 Plain Text
Title : Forced
Language : French
Default : Yes
Forced : No

Text #2
ID : 5
Format : UTF-8
Codec ID : S_TEXT/UTF8
Codec ID/Info : UTF-8 Plain Text
Language : French
Default : No
Forced : No


screenshots:

Happy Gilmore (1996)

Happy Gilmore (1996)

Happy Gilmore (1996)


Welcome to My Blog!

Subscribe to My Newsletter!

No more mirrors!

If you want to download it, but found out that links are dead, just leave a comment or PM me!
Download Links:
Uploaded | Rapidgator
Links to RapidGator and Uploaded are inside the html file. Download the file and open it in your browser.