Hardware / M.A.R.K. 13 (1990)

Posted By: RSU75
720p (HD) / BDRip IMDb
Hardware / M.A.R.K. 13 (1990)

Hardware / M.A.R.K. 13 (1990)
BDRip | MKV | AVC 1280x696, ~ 3.0 Mbps | 1hr 34mn | 2.84 GB
English \ German \ German(Commentary): AC3, 2 ch, 448 Kbps
Subtitles: English, German
Genre: Sci-Fi, Thriller
IMDB Rating: 5.9/10 (10.659 votes)


Director: Richard Stanley
Writers: Steve MacManus (story "SHOK!"), Kevin O'Neill (story "SHOK!")
Stars: Dylan McDermott, Stacey Travis, John Lynch

In the future, a nuclear war has transformed the Earth into a radioactive wasteland where the sea has dried up leaving it as a post-apocalyptic desert. In the desert, A desert scavenger named Nomad discovers a robotic head, arriving in New York City, A space marine named Moses Baxter buys the robotic head from Nomad as a Christmas present for his girlfriend Jill Grakowski, who decides to use it for one of her sculptures. But all hell starts breaking loose, when the robotic head is activated and begins to rebuilt itself. When Alvy, a junkyard dealer discover the robotic head is a Mark 13, a military cyborg of a project that was abandoned. Moses learns Jill's life is in danger, as the Mark 13 cyborg goes on a violent rampage in Jill's apartment as Jill has become the the prime target for extermination.




General
Unique ID : 232569665405591934622146700883133090352 (0xAEF749CC75FA39DBA7249643F31A4A30)
Complete name : L:\Hardware.90.7p2\Hardware.90.7p2.mkv
Format : Matroska
Format version : Version 4 / Version 2
File size : 2.84 GiB
Duration : 1 h 34 min
Overall bit rate : 4 322 kb/s
Movie name : Release RSU75
Encoded date : UTC 2017-04-24 15:30:11
Writing application : mkvmerge v6.6.0 ('The Edge Of The In Between') built on Dec 1 2013 17:55:00
Writing library : libebml v1.3.0 + libmatroska v1.4.1

Video
ID : 1
Format : AVC
Format/Info : Advanced Video Codec
Format profile : High@L3.1
Format settings : CABAC / 4 Ref Frames
Format settings, CABAC : Yes
Format settings, RefFrames : 4 frames
Codec ID : V_MPEG4/ISO/AVC
Duration : 1 h 34 min
Bit rate : 3 001 kb/s
Width : 1 280 pixels
Height : 696 pixels
Display aspect ratio : 1.85:1
Frame rate mode : Constant
Frame rate : 23.976 (23976/1000) FPS
Color space : YUV
Chroma subsampling : 4:2:0
Bit depth : 8 bits
Scan type : Progressive
Bits/(Pixel*Frame) : 0.140
Stream size : 1.90 GiB (67%)
Writing library : x264 core 144 r2533 c8a773e
Encoding settings : cabac=1 / ref=4 / deblock=1:0:0 / analyse=0x3:0x113 / me=umh / subme=8 / psy=1 / psy_rd=1.00:0.00 / mixed_ref=1 / me_range=24 / chroma_me=1 / trellis=1 / 8x8dct=1 / cqm=0 / deadzone=21,11 / fast_pskip=1 / chroma_qp_offset=-2 / threads=3 / lookahead_threads=1 / sliced_threads=0 / nr=0 / decimate=1 / interlaced=0 / bluray_compat=0 / constrained_intra=0 / bframes=3 / b_pyramid=0 / b_adapt=2 / b_bias=0 / direct=3 / weightb=1 / open_gop=0 / weightp=2 / keyint=250 / keyint_min=25 / scenecut=40 / intra_refresh=0 / rc_lookahead=40 / rc=abr / mbtree=1 / bitrate=3001 / ratetol=1.0 / qcomp=0.60 / qpmin=10 / qpmax=51 / qpstep=4 / ip_ratio=1.41 / aq=1:1.00
Language : English
Default : Yes
Forced : No

Audio #1
ID : 2
Format : AC-3
Format/Info : Audio Coding 3
Format settings, Endianness : Big
Codec ID : A_AC3
Duration : 1 h 34 min
Bit rate mode : Constant
Bit rate : 448 kb/s
Channel(s) : 2 channels
Channel positions : Front: L R
Sampling rate : 48.0 kHz
Frame rate : 31.250 FPS (1536 SPF)
Bit depth : 16 bits
Compression mode : Lossy
Delay relative to video : -42 ms
Stream size : 302 MiB (10%)
Language : English
Service kind : Complete Main
Default : Yes
Forced : No

Audio #2
ID : 3
Format : AC-3
Format/Info : Audio Coding 3
Format settings, Endianness : Big
Codec ID : A_AC3
Duration : 1 h 34 min
Bit rate mode : Constant
Bit rate : 448 kb/s
Channel(s) : 2 channels
Channel positions : Front: L R
Sampling rate : 48.0 kHz
Frame rate : 31.250 FPS (1536 SPF)
Bit depth : 16 bits
Compression mode : Lossy
Delay relative to video : -42 ms
Stream size : 302 MiB (10%)
Language : German
Service kind : Complete Main
Default : No
Forced : No

Audio #3
ID : 4
Format : AC-3
Format/Info : Audio Coding 3
Format settings, Endianness : Big
Codec ID : A_AC3
Duration : 1 h 34 min
Bit rate mode : Constant
Bit rate : 448 kb/s
Channel(s) : 2 channels
Channel positions : Front: L R
Sampling rate : 48.0 kHz
Frame rate : 31.250 FPS (1536 SPF)
Bit depth : 16 bits
Compression mode : Lossy
Delay relative to video : -42 ms
Stream size : 302 MiB (10%)
Title : Commentary
Language : German
Service kind : Complete Main
Default : No
Forced : No

Text #1
ID : 5
Format : PGS
Muxing mode : zlib
Codec ID : S_HDMV/PGS
Codec ID/Info : Picture based subtitle format used on BDs/HD-DVDs
Title : PGS
Language : English
Default : No
Forced : No

Text #2
ID : 6
Format : PGS
Muxing mode : zlib
Codec ID : S_HDMV/PGS
Codec ID/Info : Picture based subtitle format used on BDs/HD-DVDs
Title : PGS
Language : German
Default : No
Forced : No

Text #3
ID : 7
Format : PGS
Muxing mode : zlib
Codec ID : S_HDMV/PGS
Codec ID/Info : Picture based subtitle format used on BDs/HD-DVDs
Title : PGS
Language : German
Default : No
Forced : No




Screenshots (click to enlarge to original size):

Hardware / M.A.R.K. 13 (1990)

Hardware / M.A.R.K. 13 (1990)

Hardware / M.A.R.K. 13 (1990)


Hardware / M.A.R.K. 13 (1990)



–––––––––––––––––––––––––––––––––––––––-
>>> Other "Sci-Fi" <<< OR >>> "German" <<<
–––––––––––––––––––––––––––––––––––––––-
>>> Visit Blog RSU75 Here <<<
–––––––––––––––––––––––––––––––––––––––-