Heathers (1989)

Posted By: NaVi7
Heathers (1989)

Heathers (1989)
BDRip 720p | MKV / AVC, 5433 Kbps | 1280x704 | 1h 43mn | 4.37 GB
English: AC3, 640 Kbps (6 ch) | Subtitles: English
Genre: Comedy | Drama

A regular girl, Veronica, tries to survive the social jungle of high school by sticking with the three most popular girls at school who are all called Heather. As she meets a sociopath named JD, her life spirals into a continuous cycle of hate, unintentional murder and indifference, as she exacts revenge on her enemies, also known as her best friends.

imdb - 3 wins & 5 nominations.

General
Unique ID : 172861848666944133602885504696652269150 (0x820BFB26AE6B9E6CABF24E24052E065E)
Complete name : Heathers.1989.720p.BluRay.x264-SiNNERS.mkv
Format : Matroska
Format version : Version 1
File size : 4.37 GiB
Duration : 1h 43mn
Overall bit rate : 6 076 Kbps
Encoded date : UTC 2008-11-20 01:14:38
Writing application : mkvmerge v2.4.0 ('Fumbling Towards Ecstasy') built on Oct 11 2008 20:13:15
Writing library : libebml v0.7.7 + libmatroska v0.8.1

Video
ID : 1
Format : AVC
Format/Info : Advanced Video Codec
Format profile : High@L3.1
Format settings, CABAC : Yes
Format settings, ReFrames : 5 frames
Codec ID : V_MPEG4/ISO/AVC
Duration : 1h 43mn
Bit rate : 5 433 Kbps
Width : 1 280 pixels
Height : 704 pixels
Display aspect ratio : 16:9
Frame rate mode : Constant
Frame rate : 23.976 fps
Color space : YUV
Chroma subsampling : 4:2:0
Bit depth : 8 bits
Scan type : Progressive
Bits/(Pixel*Frame) : 0.251
Stream size : 3.82 GiB (87%)
Writing library : x264 core 65 r1028 83baa7f
Encoding settings : cabac=1 / ref=5 / deblock=1:0:0 / analyse=0x3:0x113 / me=umh / subme=7 / psy_rd=1.0:0.0 / mixed_ref=1 / me_range=16 / chroma_me=1 / trellis=1 / 8x8dct=1 / cqm=0 / deadzone=21,11 / chroma_qp_offset=-2 / threads=6 / nr=0 / decimate=1 / mbaff=0 / bframes=3 / b_pyramid=1 / b_adapt=1 / b_bias=0 / direct=1 / wpredb=1 / keyint=250 / keyint_min=25 / scenecut=40(pre) / rc=2pass / bitrate=5433 / ratetol=1.0 / qcomp=0.60 / qpmin=10 / qpmax=51 / qpstep=4 / cplxblur=20.0 / qblur=0.5 / ip_ratio=1.40 / pb_ratio=1.30 / aq=1:1.00
Language : English
Default : Yes
Forced : No

Audio
ID : 2
Format : AC-3
Format/Info : Audio Coding 3
Mode extension : CM (complete main)
Format settings, Endianness : Big
Codec ID : A_AC3
Duration : 1h 43mn
Bit rate mode : Constant
Bit rate : 640 Kbps
Channel(s) : 6 channels
Channel positions : Front: L C R, Side: L R, LFE
Sampling rate : 48.0 KHz
Bit depth : 16 bits
Compression mode : Lossy
Stream size : 472 MiB (11%)
Language : English
Default : Yes
Forced : No

Text
ID : 3
Format : UTF-8
Codec ID : S_TEXT/UTF8
Codec ID/Info : UTF-8 Plain Text
Language : English
Default : No
Forced : No


screenshots:

Heathers (1989)

Heathers (1989)

Heathers (1989)


Welcome to My Blog!

Subscribe to My Newsletter!

No more mirrors!

If you want to download it, but found out that links are dead, just leave a comment or PM me!
Download Links:
Uploaded | Rapidgator
Links to RapidGator and Uploaded are inside the html file. Download the file and open it in your browser.