Hello Mr. Billionaire (2018)

Posted By: Tavaz
720p (HD) / BDRip IMDb
Hello Mr. Billionaire (2018)

Hello Mr. Billionaire (2018)
BDRip | MKV | 1280x504 | Chinese / Chinese | H264 @ 3698 kbps | AC-3 @ 640 kbps | 1 h 58 min | 4.15 GiB
Subtitles: Chinese, English
Genre: Comedy

A pathetic minor league Soccer Goalkeeper was given a task - to spend 1 Billion in thirty days, if successful he will get 30 Billion. However, he's not allowed to tell anyone about the task and he must not own any valuables by end of it.

008cfb7b97e247439e3699811315887b.mkv (4.1 GB)



General
Unique ID : 172402904637146215543181044805200485208 (0x81B39776A2FBD26E879F9A41A5E39B58)
Complete name : ./008cfb7b97e247439e3699811315887b.mkv
Format : Matroska
Format version : Version 2
File size : 4.15 GiB
Duration : 1 h 58 min
Overall bit rate : 5 027 kb/s
Encoded date : UTC 2019-04-15 22:58:35
Writing application : mkvmerge v8.5.2 ('Crosses') 32bit
Writing library : libebml v1.3.3 + libmatroska v1.4.4

Video
ID : 1
Format : AVC
Format/Info : Advanced Video Codec
Format profile : High@L4.1
Format settings : CABAC / 13 Ref Frames
Format settings, CABAC : Yes
Format settings, RefFrames : 13 frames
Codec ID : V_MPEG4/ISO/AVC
Duration : 1 h 58 min
Bit rate : 3 698 kb/s
Width : 1 280 pixels
Height : 504 pixels
Display aspect ratio : 2.540
Frame rate mode : Constant
Frame rate : 24.000 FPS
Color space : YUV
Chroma subsampling : 4:2:0
Bit depth : 8 bits
Scan type : Progressive
Bits/(Pixel*Frame) : 0.239
Stream size : 3.05 GiB (74%)
Writing library : x264 core 142 r2431+42 c69a006 tMod [8-bit@4:2:0 X86_64]
Encoding settings : cabac=1 / ref=13 / deblock=1:-3:-3 / analyse=0x3:0x113 / me=umh / subme=10 / psy=1 / fade_compensate=0.00 / psy_rd=1.00:0.05 / mixed_ref=1 / me_range=32 / chroma_me=1 / trellis=2 / 8x8dct=1 / cqm=0 / deadzone=21,11 / fast_pskip=0 / chroma_qp_offset=-2 / threads=48 / lookahead_threads=3 / sliced_threads=0 / nr=0 / decimate=1 / interlaced=0 / bluray_compat=0 / constrained_intra=0 / fgo=0 / bframes=8 / b_pyramid=2 / b_adapt=2 / b_bias=0 / direct=3 / weightb=1 / open_gop=0 / weightp=2 / keyint=250 / keyint_min=24 / scenecut=40 / intra_refresh=0 / rc=crf / mbtree=0 / crf=16.3000 / qcomp=0.60 / qpmin=0:0:0 / qpmax=69:69:69 / qpstep=4 / ip_ratio=1.40 / pb_ratio=1.30 / aq=3:0.80 / aq-sensitivity=10.00 / aq-factor=1.00:1.00:1.00 / aq2=0 / aq3=0
Default : Yes
Forced : No
Color range : Limited
Matrix coefficients : BT.709

Audio #1
ID : 2
Format : AC-3
Format/Info : Audio Coding 3
Format settings, Endianness : Big
Codec ID : A_AC3
Duration : 1 h 58 min
Bit rate mode : Constant
Bit rate : 640 kb/s
Channel(s) : 6 channels
Channel positions : Front: L C R, Side: L R, LFE
Sampling rate : 48.0 kHz
Frame rate : 31.250 FPS (1536 SPF)
Bit depth : 16 bits
Compression mode : Lossy
Stream size : 541 MiB (13%)
Language : Chinese
Service kind : Complete Main
Default : Yes
Forced : No

Audio #2
ID : 3
Format : AC-3
Format/Info : Audio Coding 3
Format settings, Endianness : Big
Codec ID : A_AC3
Duration : 1 h 58 min
Bit rate mode : Constant
Bit rate : 640 kb/s
Channel(s) : 6 channels
Channel positions : Front: L C R, Side: L R, LFE
Sampling rate : 48.0 kHz
Frame rate : 31.250 FPS (1536 SPF)
Bit depth : 16 bits
Compression mode : Lossy
Stream size : 541 MiB (13%)
Language : Chinese
Service kind : Complete Main
Default : No
Forced : No

Text #1
ID : 4
Format : PGS
Muxing mode : zlib
Codec ID : S_HDMV/PGS
Codec ID/Info : Picture based subtitle format used on BDs/HD-DVDs
Duration : 1 h 56 min
Bit rate : 14.8 kb/s
Count of elements : 3584
Stream size : 12.3 MiB (0%)
Language : English
Default : Yes
Forced : No

Text #2
ID : 5
Format : PGS
Muxing mode : zlib
Codec ID : S_HDMV/PGS
Codec ID/Info : Picture based subtitle format used on BDs/HD-DVDs
Duration : 1 h 56 min
Bit rate : 16.5 kb/s
Count of elements : 3584
Stream size : 13.7 MiB (0%)
Language : Chinese
Default : No
Forced : No

Text #3
ID : 6
Format : PGS
Muxing mode : zlib
Codec ID : S_HDMV/PGS
Codec ID/Info : Picture based subtitle format used on BDs/HD-DVDs
Duration : 1 h 56 min
Bit rate : 16.2 kb/s
Count of elements : 3584
Stream size : 13.5 MiB (0%)
Language : Chinese
Default : No
Forced : No

Menu
00:00:00.000 : en:00:00:00.000
00:07:30.958 : en:00:07:30.958
00:12:47.000 : en:00:12:47.000
00:18:55.833 : en:00:18:55.833
00:24:22.917 : en:00:24:22.917
00:28:47.875 : en:00:28:47.875
00:35:00.125 : en:00:35:00.125
00:43:15.750 : en:00:43:15.750
00:46:26.042 : en:00:46:26.042
00:52:58.625 : en:00:52:58.625
00:58:56.125 : en:00:58:56.125
01:05:49.708 : en:01:05:49.708
01:09:16.208 : en:01:09:16.208
01:17:24.833 : en:01:17:24.833
01:20:59.542 : en:01:20:59.542
01:28:36.917 : en:01:28:36.917
01:35:31.833 : en:01:35:31.833
01:40:39.875 : en:01:40:39.875
01:45:26.292 : en:01:45:26.292
01:53:39.750 : en:01:53:39.750





Hello Mr. Billionaire (2018)


Hello Mr. Billionaire (2018)


Hello Mr. Billionaire (2018)


Hello Mr. Billionaire (2018)


Hello Mr. Billionaire (2018)