Tags
Language
Tags

Her Second Mother (1940)

Posted By: Tavaz
720p (HD) / BDRip IMDb
Her Second Mother (1940)

Her Second Mother (1940)
BDRip | MKV | 1280x720 | English | H264 @ 2560 kbps | AC-3 @ 192 kbps | 1 h 24 min | 1.78 GiB
Subtitles: English
Genre: Comedy, Drama, Music

A young woman tries to repay her adoptive parents' kindness by shielding their biological child, who has gotten involved with an embezzler, from the police.

20337bfa6bb72511fabae892ff1dcc44.mkv (1.8 GB)



General
Unique ID : 182921158041636736212606369566353777410 (0x899D5565119E4278FC0D4299BBEFE302)
Complete name : ./20337bfa6bb72511fabae892ff1dcc44.mkv
Format : Matroska
Format version : Version 4 / Version 2
File size : 1.78 GiB
Duration : 1 h 24 min
Overall bit rate : 3 010 kb/s
Movie name : Her.Second.Mother.1940.720p.BluRay.x264-x0r
Encoded date : UTC 2021-06-10 22:32:54
Writing application : mkvmerge v7.7.0 ('Six Voices') 64bit built on Mar 1 2015 01:50:05
Writing library : libebml v1.3.1 + libmatroska v1.4.2

Video
ID : 1
Format : AVC
Format/Info : Advanced Video Codec
Format profile : High@L4.1
Format settings : CABAC / 8 Ref Frames
Format settings, CABAC : Yes
Format settings, RefFrames : 8 frames
Codec ID : V_MPEG4/ISO/AVC
Duration : 1 h 24 min
Bit rate : 2 560 kb/s
Width : 1 280 pixels
Height : 720 pixels
Display aspect ratio : 16:9
Frame rate mode : Constant
Frame rate : 24.000 FPS
Color space : YUV
Chroma subsampling : 4:2:0
Bit depth : 8 bits
Scan type : Progressive
Bits/(Pixel*Frame) : 0.116
Stream size : 1.51 GiB (85%)
Writing library : x264 core 155 r2917 0a84d98
Encoding settings : cabac=1 / ref=8 / deblock=1:-2:-2 / analyse=0x3:0x133 / me=umh / subme=9 / psy=1 / psy_rd=1.00:0.25 / mixed_ref=1 / me_range=24 / chroma_me=1 / trellis=2 / 8x8dct=1 / cqm=0 / deadzone=21,11 / fast_pskip=1 / chroma_qp_offset=-4 / threads=22 / lookahead_threads=2 / sliced_threads=0 / nr=0 / decimate=1 / interlaced=0 / bluray_compat=0 / constrained_intra=0 / bframes=4 / b_pyramid=2 / b_adapt=2 / b_bias=0 / direct=3 / weightb=1 / open_gop=0 / weightp=2 / keyint=240 / keyint_min=24 / scenecut=40 / intra_refresh=0 / rc_lookahead=120 / rc=2pass / mbtree=1 / bitrate=2560 / ratetol=1.0 / qcomp=0.60 / qpmin=0 / qpmax=69 / qpstep=4 / cplxblur=20.0 / qblur=0.5 / vbv_maxrate=20000 / vbv_bufsize=25000 / nal_hrd=none / filler=0 / ip_ratio=1.40 / aq=1:1.00
Language : Yiddish
Default : Yes
Forced : No
Color range : Limited
Color primaries : BT.709
Transfer characteristics : BT.709
Matrix coefficients : BT.709

Audio #1
ID : 2
Format : AC-3
Format/Info : Audio Coding 3
Format settings, Endianness : Big
Codec ID : A_AC3
Duration : 1 h 24 min
Bit rate mode : Constant
Bit rate : 192 kb/s
Channel(s) : 2 channels
Channel positions : Front: L R
Sampling rate : 48.0 kHz
Frame rate : 31.250 FPS (1536 SPF)
Bit depth : 16 bits
Compression mode : Lossy
Delay relative to video : -5 ms
Stream size : 116 MiB (6%)
Title : Stereo
Language : Yiddish
Service kind : Complete Main
Default : Yes
Forced : No

Audio #2
ID : 3
Format : AC-3
Format/Info : Audio Coding 3
Format settings, Endianness : Big
Codec ID : A_AC3
Duration : 1 h 24 min
Bit rate mode : Constant
Bit rate : 256 kb/s
Channel(s) : 2 channels
Channel positions : Front: L R
Sampling rate : 48.0 kHz
Frame rate : 31.250 FPS (1536 SPF)
Bit depth : 16 bits
Compression mode : Lossy
Stream size : 155 MiB (9%)
Title : Commentary by Allen Lewis Rickman
Language : English
Service kind : Complete Main
Default : No
Forced : No

Text
ID : 4
Format : UTF-8
Codec ID : S_TEXT/UTF8
Codec ID/Info : UTF-8 Plain Text
Duration : 1 h 22 min
Bit rate : 53 b/s
Count of elements : 982
Stream size : 32.6 KiB (0%)
Language : English
Default : Yes
Forced : No

Menu
00:00:00.000 : :Chapter 1
00:05:55.583 : :Chapter 2
00:12:04.750 : :Chapter 3
00:21:53.417 : :Chapter 4
00:38:10.292 : :Chapter 5
00:44:10.875 : :Chapter 6
00:51:16.125 : :Chapter 7
01:01:04.500 : :Chapter 8
01:12:51.458 : :Chapter 9
01:24:33.333 : :Chapter 10





Her Second Mother (1940)


Her Second Mother (1940)


Her Second Mother (1940)


Her Second Mother (1940)


Her Second Mother (1940)