Tags
Language
Tags

Hero (2002)

Posted By: Tavaz
1080p (FullHD) / BDRip IMDb
Hero (2002)

Hero (2002)
BDRip | MKV | 1920x1080 | 中文 | H264 @ 5760 kbps | AC-3 @ 448 kbps | 1 h 49 min | 4.71 GiB
Subtitles: English
Genre: Drama, Adventure, Action, History

One man defeated three assassins who sought to murder the most powerful warlord in pre-unified China.

6438d2962e897142fef98b60bd71c0eb.mkv (4.7 GB)



General
Complete name : ./6438d2962e897142fef98b60bd71c0eb.mkv
Format : Matroska
Format version : Version 4 / Version 2
File size : 4.71 GiB
Duration : 1 h 49 min
Overall bit rate : 6 171 kb/s
Encoded date : UTC 2020-10-23 20:44:31 / UTC 2020-10-23T02:17:02Z
Writing application : mkvmerge v47.0.0 ('Black Flag') 64-bit
Writing library : libebml v1.3.10 + libmatroska v1.5.2 / Lavf57.7.2

Video
ID : 1
Format : AVC
Format/Info : Advanced Video Codec
Format profile : High@L4
Format settings : CABAC / 4 Ref Frames
Format settings, CABAC : Yes
Format settings, RefFrames : 4 frames
Codec ID : V_MPEG4/ISO/AVC
Duration : 1 h 49 min
Bit rate : 5 760 kb/s
Width : 1 920 pixels
Height : 1 080 pixels
Display aspect ratio : 16:9
Frame rate mode : Constant
Frame rate : 24.000 FPS
Color space : YUV
Chroma subsampling : 4:2:0
Bit depth : 8 bits
Scan type : Progressive
Bits/(Pixel*Frame) : 0.116
Stream size : 4.28 GiB (91%)
Writing library : x264 core 155 r2901 7d0ff22
Encoding settings : cabac=1 / ref=4 / deblock=1:-3:-3 / analyse=0x3:0x133 / me=umh / subme=9 / psy=1 / psy_rd=1.10:0.25 / mixed_ref=1 / me_range=32 / chroma_me=1 / trellis=2 / 8x8dct=1 / cqm=0 / deadzone=6,6 / fast_pskip=1 / chroma_qp_offset=-4 / threads=34 / lookahead_threads=3 / sliced_threads=0 / nr=0 / decimate=1 / interlaced=0 / bluray_compat=0 / constrained_intra=0 / bframes=6 / b_pyramid=2 / b_adapt=2 / b_bias=0 / direct=3 / weightb=1 / open_gop=0 / weightp=2 / keyint=240 / keyint_min=24 / scenecut=40 / intra_refresh=0 / rc_lookahead=40 / rc=2pass / mbtree=1 / bitrate=5760 / ratetol=1.0 / qcomp=0.60 / qpmin=0 / qpmax=69 / qpstep=4 / cplxblur=20.0 / qblur=0.5 / vbv_maxrate=20000 / vbv_bufsize=25000 / nal_hrd=none / filler=0 / ip_ratio=1.40 / aq=1:1.00
Language : English
Default : Yes
Forced : No
Color range : Limited
Color primaries : BT.709
Transfer characteristics : BT.709
Matrix coefficients : BT.709
Statistics Tags Issue : mkvmerge v47.0.0 ('Black Flag') 64-bit 2020-10-23 20:44:31 / mkvmerge v47.0.0 ('Black Flag') 64-bit 2020-10-23 20:44:31 / UTC 2020-10-23T02:17:02Z
FromStats_BitRate : 5721368
FromStats_Duration : 01:49:21.750000000
FromStats_FrameCount : 157482
FromStats_StreamSize : 4692773351

Audio
ID : 2
Format : AC-3
Format/Info : Audio Coding 3
Format settings, Endianness : Big
Codec ID : A_AC3
Duration : 1 h 49 min
Bit rate mode : Constant
Bit rate : 448 kb/s
Channel(s) : 6 channels
Channel positions : Front: L C R, Side: L R, LFE
Sampling rate : 48.0 kHz
Frame rate : 31.250 FPS (1536 SPF)
Bit depth : 16 bits
Compression mode : Lossy
Stream size : 350 MiB (7%)
Title : Surround
Language : Chinese
Service kind : Complete Main
Default : Yes
Forced : No
Statistics Tags Issue : mkvmerge v47.0.0 ('Black Flag') 64-bit 2020-10-23 20:44:31 / mkvmerge v47.0.0 ('Black Flag') 64-bit 2020-10-23 20:44:31 / UTC 2020-10-23T02:17:02Z
FromStats_BitRate : 448000
FromStats_Duration : 01:49:21.728000000
FromStats_FrameCount : 205054
FromStats_StreamSize : 367456768

Text
ID : 3
Format : UTF-8
Codec ID : S_TEXT/UTF8
Codec ID/Info : UTF-8 Plain Text
Title : Forced
Language : English
Default : Yes
Forced : Yes
Statistics Tags Issue : mkvmerge v47.0.0 ('Black Flag') 64-bit 2020-10-23 20:44:31 / mkvmerge v47.0.0 ('Black Flag') 64-bit 2020-10-23 20:44:31 / UTC 2020-10-23T02:17:02Z
FromStats_BitRate : 23
FromStats_Duration : 01:40:42.000000000
FromStats_FrameCount : 662
FromStats_StreamSize : 18045

Menu
00:00:00.000 : :绗?01 绔?
00:07:33.917 : :绗?02 绔?
00:15:56.833 : :绗?03 绔?
00:28:55.917 : :绗?04 绔?
00:37:46.917 : :绗?05 绔?
00:46:45.458 : :绗?06 绔?
00:54:33.417 : :绗?07 绔?
01:04:24.833 : :绗?08 绔?
01:12:18.875 : :绗?09 绔?
01:21:34.083 : :绗?10 绔?
01:29:06.500 : :绗?11 绔?
01:39:19.417 : :绗?12 绔?





Hero (2002)


Hero (2002)


Hero (2002)


Hero (2002)


Hero (2002)