Hicchihaiku / Hitch-Hike (2013)

Posted By: Rare-1
SD / DVDRip IMDb
Hicchihaiku / Hitch-Hike (2013)

Hicchihaiku / Hitch-Hike (2013)
DVDRip | MKV | 720 x 480 | AVC @ 1800 Kbps | 70 min | 1003 Mb
Audio: Japanese AC3 2.0 @ 192 Kbps | Subs: English (Embedded)
Genre: Thriller | Japan

The brutal Yoshio and his quiet young wife Saeko are on a road trip. Their drive takes a wrong turn when Yoshio decides to pick up a hitchhiker along the way. When the man reveals himself as a deranged bank robber and serial killer, the couple will be forced to cooperate in his getaway. Now it's Saeko's turn to take revenge on the man who drove her through hell!

IMDB

Director: Ainosuke Shibata
Writer: N/A
Actors: Miyuki Yokoyama, Hiroaki Kawatsure, Shôichi Matsuda
Rated: R
Runtime: 70 min

Hicchihaiku / Hitch-Hike (2013)

Hicchihaiku / Hitch-Hike (2013)

Hicchihaiku / Hitch-Hike (2013)

Hicchihaiku / Hitch-Hike (2013)


Hicchihaiku / Hitch-Hike (2013)


Hicchihaiku / Hitch-Hike (2013)



General
Unique ID : 170063935778543296712236882907780596141 (0x7FF11F652DEA3420D59F03FA29BFC1AD)
Complete name : E:\HDNLUF079\New folder\Hitch Hike Japan.mkv
Format : Matroska
Format version : Version 4 / Version 2
File size : 1 003 MiB
Duration : 1 h 10 min
Overall bit rate : 1 997 kb/s
Encoded date : UTC 2017-11-24T16:42:11Z
Writing application : HandBrake 20171001141121-dda2863-master 2017100301
Writing library : Lavf57.7.2

Video
ID : 1
Format : AVC
Format/Info : Advanced Video Codec
Format profile : High@L3.1
Format settings, CABAC : Yes
Format settings, RefFrames : 9 frames
Codec ID : V_MPEG4/ISO/AVC
Duration : 1 h 10 min
Bit rate : 1 800 kb/s
Width : 720 pixels
Height : 480 pixels
Display aspect ratio : 16:9
Frame rate mode : Constant
Frame rate : 23.976 (24000/1001) FPS
Color space : YUV
Chroma subsampling : 4:2:0
Bit depth : 8 bits
Scan type : Progressive
Bits/(Pixel*Frame) : 0.217
Stream size : 887 MiB (88%)
Writing library : x264 core 148 r2708 86b7198
Encoding settings : cabac=1 / ref=9 / deblock=1:-3:-3 / analyse=0x3:0x133 / me=umh / subme=10 / psy=1 / psy_rd=1.00:0.00 / mixed_ref=1 / me_range=24 / chroma_me=1 / trellis=2 / 8x8dct=1 / cqm=0 / deadzone=21,11 / fast_pskip=0 / chroma_qp_offset=-2 / threads=3 / lookahead_threads=1 / sliced_threads=0 / nr=0 / decimate=1 / interlaced=0 / bluray_compat=0 / constrained_intra=0 / bframes=16 / b_pyramid=2 / b_adapt=2 / b_bias=0 / direct=3 / weightb=1 / open_gop=0 / weightp=2 / keyint=240 / keyint_min=24 / scenecut=40 / intra_refresh=0 / rc_lookahead=60 / rc=2pass / mbtree=1 / bitrate=1800 / ratetol=1.0 / qcomp=0.60 / qpmin=0 / qpmax=69 / qpstep=4 / cplxblur=20.0 / qblur=0.5 / vbv_maxrate=17500 / vbv_bufsize=17500 / nal_hrd=none / filler=0 / ip_ratio=1.40 / aq=2:1.00
Default : Yes
Forced : No
Color range : Limited
Color primaries : BT.601 NTSC
Transfer characteristics : BT.709
Matrix coefficients : BT.601

Audio
ID : 2
Format : AC-3
Format/Info : Audio Coding 3
Format settings, Endianness : Big
Codec ID : A_AC3
Duration : 1 h 10 min
Bit rate mode : Constant
Bit rate : 192 kb/s
Channel(s) : 2 channels
Channel positions : Front: L R
Sampling rate : 48.0 kHz
Frame rate : 31.250 FPS (1536 SPF)
Bit depth : 16 bits
Compression mode : Lossy
Stream size : 96.5 MiB (10%)
Title : Stereo
Service kind : Complete Main
Default : Yes
Forced : No

Text
ID : 3
Format : VobSub
Codec ID : S_VOBSUB
Codec ID/Info : Picture based subtitle format used on DVDs
Default : Yes
Forced : Yes

Menu
00:00:00.000 : :Chapter 1
00:05:23.323 : :Chapter 2
00:10:36.636 : :Chapter 3
00:15:15.415 : :Chapter 4
00:21:05.765 : :Chapter 5
00:25:51.050 : :Chapter 6
00:31:32.891 : :Chapter 7
00:36:36.695 : :Chapter 8
00:40:17.916 : :Chapter 9
00:45:28.226 : :Chapter 10
00:50:54.552 : :Chapter 11
00:55:28.826 : :Chapter 12
00:59:56.093 : :Chapter 13
01:04:10.847 : :Chapter 14


Many Thanks to Original uploader.


For More Rare Movies Check out my blog!


Download Links :

No Mirrors Please