BBC - Hidden Histories: WW1's Forgotten Photographs (2014)

Posted By: Tutorial
BBC - Hidden Histories: WW1's Forgotten Photographs (2014)

BBC - Hidden Histories: WW1's Forgotten Photographs (2014)
HDTV | 1280 x 720 | .MKV/AVC @ 2562 Kbps | 59 mins | 1.12 GB
Audio: English AAC 153 Kbps, 2 channels | Subs: English
Genre: Documentary, War

Documentary telling the extraordinary untold story of soldiers' photography in the First World War. The British and German soldiers marched off to war with secret 'vest pocket' cameras, determined to record what they thought would be a great adventure, but few were prepared for the horrors they were about to witness and photograph. Their photos - many never seen before in public - provide a deeply moving document of their lives in the trenches and their rapid loss of innocence. With no soldier photographer alive to tell the tale, we join their close relatives on emotional journeys of discovery as they go in search of the secrets hidden within their ancestors' photographs. This is the war viewed from a new and surprising perspective - through the eyes of the men who fought in it.

Related Documentariest:
Discovery Channel - Killer Tanks: Fighting the Iron Fist (2004)
BBC - The First World War from Above (2010)
History Channel - WWI: The First Modern War (2014)
BBC - Britain's Great War (2014)
BBC - Western Front (1999)
BBC - The Long Shadow (2014)
BBC - The First World War (2014)
History Channel - World War I : The Great War (2009)
BBC - World War One Remembered: Passchendaele (2017)
BBC - Lloyd George: My Great-Great-Grandfather (2016)

General
Unique ID : 250750783685140475887305916262066846045 (0xBCA4D8233E6A3CAD9B023D27D5DE795D)
Complete name : BBC.Hidden.Histories.WW1s.Forgotten.Photographs.mkv
Format : Matroska
Format version : Version 4 / Version 2
File size : 1.12 GiB
Duration : 59 min 0 s
Overall bit rate : 2 718 kb/s
Encoded date : UTC 2014-11-11 12:07:05
Writing application : mkvmerge v7.3.0 ('Nouages') 32bit built on Oct 22 2014 18:44:01
Writing library : libebml v1.3.0 + libmatroska v1.4.1

Video
ID : 1
Format : AVC
Format/Info : Advanced Video Codec
Format profile : High@L4.1
Format settings, CABAC : Yes
Format settings, ReFrames : 6 frames
Codec ID : V_MPEG4/ISO/AVC
Duration : 59 min 0 s
Bit rate : 2 562 kb/s
Width : 1 280 pixels
Height : 720 pixels
Display aspect ratio : 16:9
Frame rate mode : Constant
Frame rate : 25.000 FPS
Color space : YUV
Chroma subsampling : 4:2:0
Bit depth : 8 bits
Scan type : Progressive
Bits/(Pixel*Frame) : 0.111
Stream size : 1.06 GiB (94%)
Writing library : x264 core 142 r2479 dd79a61
Encoding settings : cabac=1 / ref=6 / deblock=1:0:0 / analyse=0x3:0x113 / me=umh / subme=9 / psy=1 / psy_rd=1.00:0.00 / mixed_ref=1 / me_range=24 / chroma_me=1 / trellis=1 / 8x8dct=1 / cqm=0 / deadzone=21,11 / fast_pskip=0 / chroma_qp_offset=-2 / threads=3 / lookahead_threads=1 / sliced_threads=0 / nr=0 / decimate=1 / interlaced=0 / bluray_compat=0 / constrained_intra=0 / bframes=3 / b_pyramid=2 / b_adapt=1 / b_bias=0 / direct=1 / weightb=1 / open_gop=0 / weightp=2 / keyint=250 / keyint_min=25 / scenecut=40 / intra_refresh=0 / rc_lookahead=40 / rc=crf / mbtree=1 / crf=19.0 / qcomp=0.60 / qpmin=0 / qpmax=69 / qpstep=4 / ip_ratio=1.40 / aq=1:1.00
Language : English
Default : Yes
Forced : No

Audio
ID : 2
Format : AAC
Format/Info : Advanced Audio Codec
Format profile : LC
Codec ID : A_AAC
Duration : 59 min 0 s
Bit rate : 153 kb/s
Channel(s) : 2 channels
Channel positions : Front: L R
Sampling rate : 48.0 kHz
Frame rate : 46.875 FPS (1024 spf)
Compression mode : Lossy
Delay relative to video : 9 ms
Stream size : 64.4 MiB (6%)
Language : English
Default : Yes
Forced : No

Text
ID : 3
Format : UTF-8
Codec ID : S_TEXT/UTF8
Codec ID/Info : UTF-8 Plain Text
Duration : 57 min 47 s
Bit rate : 92 b/s
Count of elements : 863
Stream size : 39.3 KiB (0%)
Language : English
Default : No
Forced : No
Screenshots

BBC - Hidden Histories: WW1's Forgotten Photographs (2014)

BBC - Hidden Histories: WW1's Forgotten Photographs (2014)

Welcome to my blog - daily update!

BBC - Hidden Histories: WW1's Forgotten Photographs (2014)