History Channel - James Bond Gadgets (2002)

Posted By: Polik88
History Channel - James Bond Gadgets (2002)

History Channel - James Bond Gadgets (2002)
English | MP4 | 720x528 | AVC 2005 Kbps 25.000 fps | AAC 128 Kbps 48.0 khz | 42mn 41s | 653 MB
Genre: Documentary

His movies are legendary, his women breathtaking and with his sharp suits and cutting edge toys, he is dressed to kill. Whether James Bond is pursuing villains in space-age flying machines or neatly evading danger with high-tech marvels, British Secret Agent 007 is licensed to carry the most stunningly intelligent devices ever to grace the silver screen. Bond had it all. This exclusive look at his Gadgets reveals what it really takes to save the world. The gadgets disc was previously available and isn’t really entitled James Bond gadgets but Modern Marvels. It’s a good enough look at some gadgets and vehicles featured in the Bond movies, but worth having though if you are a Bond fan.
General
Complete name : History.Ch.James.Bond.Gadgets.mp4
Format : MPEG-4
Format profile : Base Media
Codec ID : isom
File size : 653 MiB
Duration : 42mn 41s
Overall bit rate mode : Variable
Overall bit rate : 2 138 Kbps
Encoded date : UTC 2013-02-13 18:00:49
Tagged date : UTC 2013-02-13 18:00:49
Writing application : Lavf51.12.1

Video
ID : 1
Format : AVC
Format/Info : Advanced Video Codec
Format profile : High@L3.0
Format settings, CABAC : No
Format settings, ReFrames : 1 frame
Format settings, GOP : M=1, N=12
Codec ID : avc1
Codec ID/Info : Advanced Video Coding
Duration : 42mn 41s
Bit rate : 2 005 Kbps
Width : 720 pixels
Height : 528 pixels
Display aspect ratio : 4:3
Frame rate mode : Constant
Frame rate : 25.000 fps
Color space : YUV
Chroma subsampling : 4:2:0
Bit depth : 8 bits
Scan type : Progressive
Bits/(Pixel*Frame) : 0.211
Stream size : 612 MiB (94%)
Encoded date : UTC 2013-02-13 18:00:49
Tagged date : UTC 2013-02-13 18:00:49

Audio
ID : 2
Format : AAC
Format/Info : Advanced Audio Codec
Format profile : LC
Codec ID : 40
Duration : 42mn 41s
Bit rate mode : Variable
Bit rate : 128 Kbps
Channel(s) : 2 channels
Channel positions : Front: L R
Sampling rate : 48.0 KHz
Compression mode : Lossy
Stream size : 39.1 MiB (6%)
Encoded date : UTC 2013-02-13 18:00:49
Tagged date : UTC 2013-02-13 18:00:49

Screenshots

History Channel - James Bond Gadgets (2002)

History Channel - James Bond Gadgets (2002)

History Channel - James Bond Gadgets (2002)

no mirrors please, Follow The Rules
Visit Polik88 Blog Here
no password